Specials/[MK] One Punch Man - SP3 [BD 720p][Hi10][Dual-Audio][1F22A7C6].mkv


File Size466.4 MB (489,023,499 bytes)
DownloadClickNUpload | Go4Up | Jheberg | MultiUp
  • ClickNupload
  • Fichier
  • Filerio
  • Free
  • Fufox
  • HugeFiles
  • Mightyupload
  • ToutBox
  • Turbobit
  • UpToBox
  • Uplea
  • UploadBaz
  • Uploadable
  • Uploaded
  • Uppit
  • Userscloud
| OpenLoad | SolidFiles
Sendspace: Part1, Part2
HashesCRC32: 1F22A7C6, MD5: 7A21731AD09FE037237F3C98A0922576, SHA1: A13270CC5C91D1E7E47D961C056D9F9E90E9AFAA, SHA256: 27E234C8759A591E51E2DB3C5C2B033BCAC5A57E82D0CA43FD0050038568BDC1, ED2K: CD50D877176D9B02AEB60CE0EF946ACD
Screenshots
screenshotscreenshotscreenshotscreenshotscreenshot
SubtitlesAll Attachments | Signs & Songs [eng, ASS], Full Subtitles [SallySubs] [eng, ASS]
Additional Info
General
Unique ID                                : 170996889098768470676516176446858589414 (0x80A4CD8B974571AA9395359F2A3DF4E6)
Complete name                            : [MK] One Punch Man - SP3 [BD 720p][Hi10][Dual-Audio][1F22A7C6].mkv
Format                                   : Matroska
Format version                           : Version 4 / Version 2
File size                                : 466 MiB
Duration                                 : 12 min 6 s
Overall bit rate                         : 5 383 kb/s
Movie name                               : [MK] One Punch Man - SP3 [BD 720p][Hi10][Dual-Audio]
Encoded date                             : UTC 2017-09-18 09:24:18
Writing application                      : mkvmerge v15.0.0 ('Duel with the Devil') 64-bit
Writing library                          : libebml v1.3.5 + libmatroska v1.4.5
Attachments                              : RiiT_F.otf / bellgothicstd-black.otf / DFFangYuanW7-B5.ttc / DISTInkingFxd-Bold.otf / DISTInking-Regular.otf / JENKINSV2.TTF / Rosario-Bold.ttf / Rosario-BoldItalic.ttf / SubClearSans-Bold.ttf

Video
ID                                       : 1
Format                                   : AVC
Format/Info                              : Advanced Video Codec
Format profile                           : High 10@L4.1
Format settings, CABAC                   : Yes
Format settings, ReFrames                : 9 frames
Codec ID                                 : V_MPEG4/ISO/AVC
Duration                                 : 12 min 6 s
Bit rate                                 : 4 877 kb/s
Width                                    : 1 280 pixels
Height                                   : 720 pixels
Display aspect ratio                     : 16:9
Frame rate mode                          : Constant
Frame rate                               : 23.976 (24000/1001) FPS
Color space                              : YUV
Chroma subsampling                       : 4:2:0
Bit depth                                : 10 bits
Scan type                                : Progressive
Bits/(Pixel*Frame)                       : 0.221
Stream size                              : 423 MiB (91%)
Title                                    : 720p BD [Beatrice-raws]
Writing library                          : x264 core 148 r2579 73ae2d1
Encoding settings                        : cabac=1 / ref=9 / deblock=1:-2:-2 / analyse=0x3:0x113 / me=umh / subme=9 / psy=1 / psy_rd=0.90:0.00 / mixed_ref=1 / me_range=32 / chroma_me=1 / trellis=2 / 8x8dct=1 / cqm=0 / deadzone=21,11 / fast_pskip=1 / chroma_qp_offset=-2 / threads=6 / lookahead_threads=1 / sliced_threads=0 / nr=0 / decimate=1 / interlaced=0 / bluray_compat=0 / constrained_intra=0 / bframes=11 / b_pyramid=2 / b_adapt=2 / b_bias=0 / direct=1 / weightb=1 / open_gop=0 / weightp=2 / keyint=240 / keyint_min=23 / scenecut=40 / intra_refresh=0 / rc=crf / mbtree=0 / crf=15.3 / qcomp=0.70 / qpmin=0 / qpmax=81 / qpstep=4 / ip_ratio=1.40 / pb_ratio=1.30 / aq=1:1.00
Language                                 : Japanese
Default                                  : Yes
Forced                                   : No
Color range                              : Limited
Color primaries                          : BT.709
Transfer characteristics                 : BT.709
Matrix coefficients                      : BT.709

Audio #1
ID                                       : 2
Format                                   : AAC
Format/Info                              : Advanced Audio Codec
Format profile                           : LC
Codec ID                                 : A_AAC
Duration                                 : 12 min 5 s
Bit rate                                 : 187 kb/s
Channel(s)                               : 2 channels
Channel positions                        : Front: L R
Sampling rate                            : 48.0 kHz
Frame rate                               : 46.875 FPS (1024 spf)
Compression mode                         : Lossy
Delay relative to video                  : 9 ms
Stream size                              : 16.2 MiB (3%)
Title                                    : 2.0Ch AAC 192kb/s
Language                                 : English
Default                                  : Yes
Forced                                   : Yes

Audio #2
ID                                       : 3
Format                                   : AAC
Format/Info                              : Advanced Audio Codec
Format profile                           : LC
Codec ID                                 : A_AAC
Duration                                 : 12 min 6 s
Bit rate                                 : 186 kb/s
Channel(s)                               : 2 channels
Channel positions                        : Front: L R
Sampling rate                            : 48.0 kHz
Frame rate                               : 46.875 FPS (1024 spf)
Compression mode                         : Lossy
Delay relative to video                  : 9 ms
Stream size                              : 16.1 MiB (3%)
Title                                    : 2.0Ch AAC 192kb/s
Language                                 : Japanese
Default                                  : No
Forced                                   : No

Text #1
ID                                       : 4
Format                                   : ASS
Codec ID                                 : S_TEXT/ASS
Codec ID/Info                            : Advanced Sub Station Alpha
Duration                                 : 11 min 22 s
Bit rate                                 : 106 b/s
Count of elements                        : 139
Compression mode                         : Lossless
Stream size                              : 8.86 KiB (0%)
Title                                    : Signs & Songs
Language                                 : English
Default                                  : Yes
Forced                                   : Yes

Text #2
ID                                       : 5
Format                                   : ASS
Codec ID                                 : S_TEXT/ASS
Codec ID/Info                            : Advanced Sub Station Alpha
Duration                                 : 11 min 40 s
Bit rate                                 : 183 b/s
Count of elements                        : 274
Compression mode                         : Lossless
Stream size                              : 15.7 KiB (0%)
Title                                    : Full Subtitles [SallySubs]
Language                                 : English
Default                                  : No
Forced                                   : No

Menu #1
00:00:00.000                             : :Part A
00:10:29.045                             : :ED

Menu #2
00:00:00.054                             : en:00:00:00.054

Other Files in this Torrent
Specials/[MK] One Punch Man - SP3 [BD 720p][Hi10][Dual-Audio][1F22A7C6].mkv
beta
Anime DDL+NZB mirror
Current Time: 27/11/2021 17:51



About/FAQs

Discord