[MK] One Punch Man - 10 [BD 720p][Hi10][Dual-Audio][B74CBDE7].mkv


File Size993.4 MB (1,041,673,761 bytes)
DownloadClickNUpload | Jheberg | MultiUp
  • ClickNupload
  • Fichier
  • Filerio
  • Free
  • Fufox
  • HugeFiles
  • Mightyupload
  • ToutBox
  • Turbobit
  • UpToBox
  • Uplea
  • UploadBaz
  • Uploadable
  • Uploaded
  • Uppit
  • Userscloud
| OpenLoad
Sendspace: Part1, Part2, Part3, Part4
SolidFiles: Part1, Part2
HashesCRC32: B74CBDE7, MD5: A3F4797C199EF3B77719D147BC6591BB, SHA1: BB061F8C42F9DA202F8170EE08F76732B86F733A, SHA256: 4A2ED3D17741900B43E7B453487844886F61E9D765F3EA29112993F8AABD500E, ED2K: CBC4EB5D661D71E2DE1424B297D59209
Screenshots
screenshotscreenshotscreenshotscreenshotscreenshot
SubtitlesAll Attachments | Signs & Songs [eng, ASS], Full Subtitles (Kametsu edit) [eng, ASS]
Additional Info
General
Unique ID                                : 183458258255280895540832380556135070438 (0x8A04C67AD72ACC22AF585A6ABEAF7AE6)
Complete name                            : [MK] One Punch Man - 10 [BD 720p][Hi10][Dual-Audio][B74CBDE7].mkv
Format                                   : Matroska
Format version                           : Version 4 / Version 2
File size                                : 993 MiB
Duration                                 : 24 min 21 s
Overall bit rate                         : 5 703 kb/s
Movie name                               : [MK] One Punch Man - 10 [BD 720p][Hi10][Dual-Aduio]
Encoded date                             : UTC 2017-09-10 11:36:16
Writing application                      : mkvmerge v15.0.0 ('Duel with the Devil') 64-bit
Writing library                          : libebml v1.3.5 + libmatroska v1.4.5
Attachments                              : BellGothicStd-Black.otf / Teen.ttf / StoneSansStd-Semibold.otf / JennaSue.ttf / Kick ITC TT.ttf / LibbyHand.ttf / Rosario-Bold.ttf / Rosario-BoldItalic.ttf / SWZ721H.ttf / AdobeHeiti-Kami.ttf / Brush Strokes.ttf / DISTInkingFxd-Bold.otf / Franchise-Bold-hinted.ttf

Video
ID                                       : 1
Format                                   : AVC
Format/Info                              : Advanced Video Codec
Format profile                           : High 10@L4.1
Format settings, CABAC                   : Yes
Format settings, ReFrames                : 9 frames
Codec ID                                 : V_MPEG4/ISO/AVC
Duration                                 : 24 min 21 s
Bit rate                                 : 5 320 kb/s
Width                                    : 1 280 pixels
Height                                   : 720 pixels
Display aspect ratio                     : 16:9
Frame rate mode                          : Constant
Frame rate                               : 23.976 (24000/1001) FPS
Color space                              : YUV
Chroma subsampling                       : 4:2:0
Bit depth                                : 10 bits
Scan type                                : Progressive
Bits/(Pixel*Frame)                       : 0.241
Stream size                              : 927 MiB (93%)
Title                                    : 720p BD [Beatrice-raws]
Writing library                          : x264 core 148 r2579 73ae2d1
Encoding settings                        : cabac=1 / ref=9 / deblock=1:-2:-2 / analyse=0x3:0x113 / me=umh / subme=9 / psy=1 / psy_rd=0.90:0.00 / mixed_ref=1 / me_range=32 / chroma_me=1 / trellis=2 / 8x8dct=1 / cqm=0 / deadzone=21,11 / fast_pskip=1 / chroma_qp_offset=-2 / threads=12 / lookahead_threads=3 / sliced_threads=0 / nr=0 / decimate=1 / interlaced=0 / bluray_compat=0 / constrained_intra=0 / bframes=11 / b_pyramid=2 / b_adapt=2 / b_bias=0 / direct=1 / weightb=1 / open_gop=0 / weightp=2 / keyint=240 / keyint_min=23 / scenecut=40 / intra_refresh=0 / rc=crf / mbtree=0 / crf=15.2 / qcomp=0.70 / qpmin=0 / qpmax=81 / qpstep=4 / ip_ratio=1.40 / pb_ratio=1.30 / aq=1:1.00
Language                                 : Japanese
Default                                  : Yes
Forced                                   : No
Color range                              : Limited
Color primaries                          : BT.709
Transfer characteristics                 : BT.709
Matrix coefficients                      : BT.709

Audio #1
ID                                       : 2
Format                                   : AAC
Format/Info                              : Advanced Audio Codec
Format profile                           : LC
Codec ID                                 : A_AAC
Duration                                 : 24 min 21 s
Bit rate                                 : 184 kb/s
Channel(s)                               : 2 channels
Channel positions                        : Front: L R
Sampling rate                            : 48.0 kHz
Frame rate                               : 46.875 FPS (1024 spf)
Compression mode                         : Lossy
Delay relative to video                  : 9 ms
Stream size                              : 32.0 MiB (3%)
Title                                    : 2.0Ch AAC 192kbs
Language                                 : English
Default                                  : Yes
Forced                                   : Yes

Audio #2
ID                                       : 3
Format                                   : AAC
Format/Info                              : Advanced Audio Codec
Format profile                           : LC
Codec ID                                 : A_AAC
Duration                                 : 24 min 21 s
Bit rate                                 : 185 kb/s
Channel(s)                               : 2 channels
Channel positions                        : Front: L R
Sampling rate                            : 48.0 kHz
Frame rate                               : 46.875 FPS (1024 spf)
Compression mode                         : Lossy
Delay relative to video                  : 9 ms
Stream size                              : 32.2 MiB (3%)
Title                                    : 2.0Ch AAC 192kbs
Language                                 : Japanese
Default                                  : No
Forced                                   : No

Text #1
ID                                       : 4
Format                                   : ASS
Codec ID                                 : S_TEXT/ASS
Codec ID/Info                            : Advanced Sub Station Alpha
Duration                                 : 23 min 7 s
Bit rate                                 : 2 574 b/s
Count of elements                        : 3592
Compression mode                         : Lossless
Stream size                              : 436 KiB (0%)
Title                                    : Signs & Songs
Language                                 : English
Default                                  : Yes
Forced                                   : Yes

Text #2
ID                                       : 5
Format                                   : ASS
Codec ID                                 : S_TEXT/ASS
Codec ID/Info                            : Advanced Sub Station Alpha
Duration                                 : 24 min 1 s
Bit rate                                 : 2 593 b/s
Count of elements                        : 3957
Compression mode                         : Lossless
Stream size                              : 456 KiB (0%)
Title                                    : Full Subtitles (Kametsu edit)
Language                                 : English
Default                                  : No
Forced                                   : No

Menu
00:00:00.000                             : en:Intro
00:01:16.993                             : en:Opening
00:02:47.042                             : en:Part A
00:15:01.984                             : en:Part B
00:22:29.973                             : en:Ending
00:24:00.022                             : en:Preview

Other Files in this Torrent
[MK] One Punch Man - 10 [BD 720p][Hi10][Dual-Audio][B74CBDE7].mkv
beta
Anime DDL+NZB mirror
Current Time: 27/11/2021 17:53



About/FAQs

Discord