[MK] One Punch Man - 12 [BD 720p][Hi10][Dual-Audio][F292BBB6].mkv


File Size1.122 GB (1,205,208,403 bytes)
DownloadClickNUpload: Part1, Part2
Jheberg: Part1, Part2
MultiUp: Part1
  • ClickNupload
  • Fichier
  • Filerio
  • Free
  • Fufox
  • HugeFiles
  • Mightyupload
  • ToutBox
  • Turbobit
  • UpToBox
  • Uplea
  • UploadBaz
  • Uploadable
  • Uploaded
  • Uppit
  • Userscloud
, Part2
  • ClickNupload
  • Fichier
  • Filerio
  • Free
  • Fufox
  • HugeFiles
  • Mightyupload
  • ToutBox
  • Turbobit
  • UpToBox
  • Uplea
  • UploadBaz
  • Uploadable
  • Uploaded
  • Uppit
  • Userscloud

OpenLoad: Part1, Part2
Sendspace: Part1, Part2, Part3, Part4
SolidFiles: Part1, Part2, Part3
HashesCRC32: F292BBB6, MD5: BCA2DA4AA75C439E8220FE1F57263691, SHA1: 93DF55F25B419EF53604379C9B563AAA54ACDC8F, SHA256: 82C65E7F76020E888704E23D630F893B98FE27659A26372C6CD7D651BD5B6CEB, ED2K: 23E86BE3B7E00357242EBD4227796B73
Screenshots
screenshotscreenshotscreenshotscreenshotscreenshot
SubtitlesAll Attachments | Signs & Songs [eng, ASS], Full Subtitles (Kametsu edit) [eng, ASS]
Additional Info
General
Unique ID                                : 199323318659327954863993666466445516283 (0x95F446596D953A8AB3C39DBF3F0FDDFB)
Complete name                            : [MK] One Punch Man - 12 [BD 720p][Hi10][Dual-Audio][F292BBB6].mkv
Format                                   : Matroska
Format version                           : Version 4 / Version 2
File size                                : 1.12 GiB
Duration                                 : 24 min 1 s
Overall bit rate                         : 6 690 kb/s
Movie name                               : [MK] One Punch Man - 12 [BD 720p][Hi10][Dual-Aduio]
Encoded date                             : UTC 2017-09-10 11:38:20
Writing application                      : mkvmerge v15.0.0 ('Duel with the Devil') 64-bit
Writing library                          : libebml v1.3.5 + libmatroska v1.4.5
Attachments                              : BellGothicStd-Black.otf / Teen.ttf / StoneSansStd-Semibold.otf / Brush Strokes.ttf / Franchise-Bold-hinted.ttf / JennaSue.ttf / Rosario-Bold.ttf / Rosario-BoldItalic.ttf / SubClearSans-Bold.ttf

Video
ID                                       : 1
Format                                   : AVC
Format/Info                              : Advanced Video Codec
Format profile                           : High 10@L4.1
Format settings, CABAC                   : Yes
Format settings, ReFrames                : 9 frames
Codec ID                                 : V_MPEG4/ISO/AVC
Duration                                 : 24 min 1 s
Bit rate                                 : 6 315 kb/s
Width                                    : 1 280 pixels
Height                                   : 720 pixels
Display aspect ratio                     : 16:9
Frame rate mode                          : Constant
Frame rate                               : 23.976 (24000/1001) FPS
Color space                              : YUV
Chroma subsampling                       : 4:2:0
Bit depth                                : 10 bits
Scan type                                : Progressive
Bits/(Pixel*Frame)                       : 0.286
Stream size                              : 1.06 GiB (94%)
Title                                    : 720p BD [Beatrice-raws]
Writing library                          : x264 core 148 r2579 73ae2d1
Encoding settings                        : cabac=1 / ref=9 / deblock=1:-2:-2 / analyse=0x3:0x113 / me=umh / subme=9 / psy=1 / psy_rd=0.90:0.00 / mixed_ref=1 / me_range=32 / chroma_me=1 / trellis=2 / 8x8dct=1 / cqm=0 / deadzone=21,11 / fast_pskip=1 / chroma_qp_offset=-2 / threads=12 / lookahead_threads=3 / sliced_threads=0 / nr=0 / decimate=1 / interlaced=0 / bluray_compat=0 / constrained_intra=0 / bframes=11 / b_pyramid=2 / b_adapt=2 / b_bias=0 / direct=1 / weightb=1 / open_gop=0 / weightp=2 / keyint=240 / keyint_min=23 / scenecut=40 / intra_refresh=0 / rc=crf / mbtree=0 / crf=15.2 / qcomp=0.70 / qpmin=0 / qpmax=81 / qpstep=4 / ip_ratio=1.40 / pb_ratio=1.30 / aq=1:1.00
Language                                 : Japanese
Default                                  : Yes
Forced                                   : No
Color range                              : Limited
Color primaries                          : BT.709
Transfer characteristics                 : BT.709
Matrix coefficients                      : BT.709

Audio #1
ID                                       : 2
Format                                   : AAC
Format/Info                              : Advanced Audio Codec
Format profile                           : LC
Codec ID                                 : A_AAC
Duration                                 : 24 min 1 s
Bit rate                                 : 184 kb/s
Channel(s)                               : 2 channels
Channel positions                        : Front: L R
Sampling rate                            : 48.0 kHz
Frame rate                               : 46.875 FPS (1024 spf)
Compression mode                         : Lossy
Delay relative to video                  : 9 ms
Stream size                              : 31.7 MiB (3%)
Title                                    : 2.0Ch AAC 192kbs
Language                                 : English
Default                                  : Yes
Forced                                   : Yes

Audio #2
ID                                       : 3
Format                                   : AAC
Format/Info                              : Advanced Audio Codec
Format profile                           : LC
Codec ID                                 : A_AAC
Duration                                 : 24 min 1 s
Bit rate                                 : 184 kb/s
Channel(s)                               : 2 channels
Channel positions                        : Front: L R
Sampling rate                            : 48.0 kHz
Frame rate                               : 46.875 FPS (1024 spf)
Compression mode                         : Lossy
Delay relative to video                  : 9 ms
Stream size                              : 31.6 MiB (3%)
Title                                    : 2.0Ch AAC 192kbs
Language                                 : Japanese
Default                                  : No
Forced                                   : No

Text #1
ID                                       : 4
Format                                   : ASS
Codec ID                                 : S_TEXT/ASS
Codec ID/Info                            : Advanced Sub Station Alpha
Duration                                 : 19 min 42 s
Bit rate                                 : 59 b/s
Count of elements                        : 97
Compression mode                         : Lossless
Stream size                              : 8.61 KiB (0%)
Title                                    : Signs & Songs
Language                                 : English
Default                                  : Yes
Forced                                   : Yes

Text #2
ID                                       : 5
Format                                   : ASS
Codec ID                                 : S_TEXT/ASS
Codec ID/Info                            : Advanced Sub Station Alpha
Duration                                 : 23 min 18 s
Bit rate                                 : 146 b/s
Count of elements                        : 406
Compression mode                         : Lossless
Stream size                              : 25.0 KiB (0%)
Title                                    : Full Subtitles (Kametsu edit)
Language                                 : English
Default                                  : No
Forced                                   : No

Menu
00:00:00.000                             : en:Intro
00:00:51.051                             : en:Part A
00:14:01.048                             : en:Part B
00:20:17.424                             : en:Ending
00:22:42.903                             : en:Epilogue

Other Files in this Torrent
[MK] One Punch Man - 12 [BD 720p][Hi10][Dual-Audio][F292BBB6].mkv
beta
Anime DDL+NZB mirror
Current Time: 30/11/2021 09:44



About/FAQs

Discord