[MK] One Punch Man - 02 [BD 720p][Hi10][Dual-Audio][56FAF56A].mkv


File Size1.198 GB (1,286,118,345 bytes)
DownloadClickNUpload: Part1, Part2
Jheberg: Part1, Part2
MultiUp: Part1
  • ClickNupload
  • Fichier
  • Filerio
  • Free
  • Fufox
  • HugeFiles
  • Mightyupload
  • ToutBox
  • Turbobit
  • UpToBox
  • Uplea
  • UploadBaz
  • Uploadable
  • Uploaded
  • Uppit
  • Userscloud
, Part2
  • ClickNupload
  • Fichier
  • Filerio
  • Free
  • Fufox
  • HugeFiles
  • Mightyupload
  • ToutBox
  • Turbobit
  • UpToBox
  • Uplea
  • UploadBaz
  • Uploadable
  • Uploaded
  • Uppit
  • Userscloud

OpenLoad: Part1, Part2
Sendspace: Part1, Part2, Part3, Part4, Part5
SolidFiles: Part1, Part2, Part3
HashesCRC32: 56FAF56A, MD5: 1D8FFA993B88A3C8D389883FE6393A10, SHA1: FCF3520B612D1E2A89B7FC904966543312AC76F0, SHA256: A6D627443076ED406050CFF25239C808E455C0C11EC20DB3C54F01D07E52F328, ED2K: 98ADD28CFDB90A54E42F005F99E3A256
Screenshots
screenshotscreenshotscreenshotscreenshotscreenshot
SubtitlesAll Attachments | Signs & Songs [eng, ASS], Full Subtitles (Kametsu edit) [eng, ASS]
Additional Info
General
Unique ID                                : 210136214416486343590607284997092416188 (0x9E16C345305B89E4B37390FFF7F61ABC)
Complete name                            : [MK] One Punch Man - 02 [BD 720p][Hi10][Dual-Audio][56FAF56A].mkv
Format                                   : Matroska
Format version                           : Version 4 / Version 2
File size                                : 1.20 GiB
Duration                                 : 24 min 21 s
Overall bit rate                         : 7 042 kb/s
Movie name                               : [MK] One Punch Man - 02 [BD 720p][Hi10][Dual-Aduio]
Encoded date                             : UTC 2017-09-10 11:26:42
Writing application                      : mkvmerge v15.0.0 ('Duel with the Devil') 64-bit
Writing library                          : libebml v1.3.5 + libmatroska v1.4.5
Attachments                              : BellGothicStd-Black.otf / Teen.ttf / StoneSansStd-Semibold.otf / calibrib.ttf / Candombe.ttf / DISTInking-Bold.otf / Franchise-Bold-hinted.ttf / JennaSue.ttf / Rosario-Bold.ttf / Rosario-BoldItalic.ttf / bertoltbrecht.ttf / bubblegun.ttf

Video
ID                                       : 1
Format                                   : AVC
Format/Info                              : Advanced Video Codec
Format profile                           : High 10@L4.1
Format settings, CABAC                   : Yes
Format settings, ReFrames                : 9 frames
Codec ID                                 : V_MPEG4/ISO/AVC
Duration                                 : 24 min 20 s
Bit rate                                 : 6 638 kb/s
Width                                    : 1 280 pixels
Height                                   : 720 pixels
Display aspect ratio                     : 16:9
Frame rate mode                          : Constant
Frame rate                               : 23.976 (24000/1001) FPS
Color space                              : YUV
Chroma subsampling                       : 4:2:0
Bit depth                                : 10 bits
Scan type                                : Progressive
Bits/(Pixel*Frame)                       : 0.300
Stream size                              : 1.13 GiB (94%)
Title                                    : 720p BD [Beatrice-raws]
Writing library                          : x264 core 148 r2579 73ae2d1
Encoding settings                        : cabac=1 / ref=9 / deblock=1:-2:-2 / analyse=0x3:0x113 / me=umh / subme=9 / psy=1 / psy_rd=0.90:0.00 / mixed_ref=1 / me_range=32 / chroma_me=1 / trellis=2 / 8x8dct=1 / cqm=0 / deadzone=21,11 / fast_pskip=1 / chroma_qp_offset=-2 / threads=6 / lookahead_threads=1 / sliced_threads=0 / nr=0 / decimate=1 / interlaced=0 / bluray_compat=0 / constrained_intra=0 / bframes=11 / b_pyramid=2 / b_adapt=2 / b_bias=0 / direct=1 / weightb=1 / open_gop=0 / weightp=2 / keyint=240 / keyint_min=23 / scenecut=40 / intra_refresh=0 / rc=crf / mbtree=0 / crf=15.0 / qcomp=0.70 / qpmin=0 / qpmax=81 / qpstep=4 / ip_ratio=1.40 / pb_ratio=1.30 / aq=1:1.00
Language                                 : Japanese
Default                                  : Yes
Forced                                   : No
Color range                              : Limited
Color primaries                          : BT.709
Transfer characteristics                 : BT.709
Matrix coefficients                      : BT.709

Audio #1
ID                                       : 2
Format                                   : AAC
Format/Info                              : Advanced Audio Codec
Format profile                           : LC
Codec ID                                 : A_AAC
Duration                                 : 24 min 21 s
Bit rate                                 : 188 kb/s
Channel(s)                               : 2 channels
Channel positions                        : Front: L R
Sampling rate                            : 48.0 kHz
Frame rate                               : 46.875 FPS (1024 spf)
Compression mode                         : Lossy
Delay relative to video                  : 9 ms
Stream size                              : 32.7 MiB (3%)
Title                                    : 2.0Ch AAC 192kbs
Language                                 : English
Default                                  : Yes
Forced                                   : Yes

Audio #2
ID                                       : 3
Format                                   : AAC
Format/Info                              : Advanced Audio Codec
Format profile                           : LC
Codec ID                                 : A_AAC
Duration                                 : 24 min 20 s
Bit rate                                 : 186 kb/s
Channel(s)                               : 2 channels
Channel positions                        : Front: L R
Sampling rate                            : 48.0 kHz
Frame rate                               : 46.875 FPS (1024 spf)
Compression mode                         : Lossy
Delay relative to video                  : 9 ms
Stream size                              : 32.4 MiB (3%)
Title                                    : 2.0Ch AAC 192kbs
Language                                 : Japanese
Default                                  : No
Forced                                   : No

Text #1
ID                                       : 4
Format                                   : ASS
Codec ID                                 : S_TEXT/ASS
Codec ID/Info                            : Advanced Sub Station Alpha
Duration                                 : 24 min 0 s
Bit rate                                 : 7 416 b/s
Count of elements                        : 7554
Compression mode                         : Lossless
Stream size                              : 1.27 MiB (0%)
Title                                    : Signs & Songs
Language                                 : English
Default                                  : Yes
Forced                                   : Yes

Text #2
ID                                       : 5
Format                                   : ASS
Codec ID                                 : S_TEXT/ASS
Codec ID/Info                            : Advanced Sub Station Alpha
Duration                                 : 24 min 18 s
Bit rate                                 : 7 417 b/s
Count of elements                        : 7858
Compression mode                         : Lossless
Stream size                              : 1.29 MiB (0%)
Title                                    : Full Subtitles (Kametsu edit)
Language                                 : English
Default                                  : No
Forced                                   : No

Menu
00:00:00.000                             : en:Intro
00:02:00.036                             : en:Opening
00:03:30.001                             : en:Part A
00:11:17.969                             : en:Part B
00:22:08.952                             : en:Ending
00:23:38.917                             : en:Outro
00:23:59.938                             : en:Preview

Other Files in this Torrent
[MK] One Punch Man - 02 [BD 720p][Hi10][Dual-Audio][56FAF56A].mkv
beta
Anime DDL+NZB mirror
Current Time: 30/11/2021 09:08



About/FAQs

Discord