[MK] One Punch Man - 06 [BD 720p][Hi10][Dual-Audio][FFBDD0FD].mkv


File Size1.007 GB (1,081,642,434 bytes)
DownloadClickNUpload: Part1, Part2
Jheberg: Part1, Part2
MultiUp: Part1
  • ClickNupload
  • Fichier
  • Filerio
  • Free
  • Fufox
  • HugeFiles
  • Mightyupload
  • ToutBox
  • Turbobit
  • UpToBox
  • Uplea
  • UploadBaz
  • Uploadable
  • Uploaded
  • Uppit
  • Userscloud
, Part2
  • ClickNupload
  • Fichier
  • Filerio
  • Free
  • Fufox
  • HugeFiles
  • Mightyupload
  • ToutBox
  • Turbobit
  • UpToBox
  • Uplea
  • UploadBaz
  • Uploadable
  • Uploaded
  • Uppit
  • Userscloud

OpenLoad: Part1, Part2
Sendspace: Part1, Part2, Part3, Part4
SolidFiles: Part1, Part2, Part3
HashesCRC32: FFBDD0FD, MD5: 92683B7C0D5A4B952C4D2872E58EB0CC, SHA1: A2F9FCDC6BB9D3FBC1672448584639E9952922CA, SHA256: 3EDAE3C6517B4326B171A1FF1176448898C98707ED473B6EA9DB57355067766D, ED2K: DBAA70A9B005642895A48DB361D3C0CE
Screenshots
screenshotscreenshotscreenshotscreenshotscreenshot
SubtitlesAll Attachments | Signs & Songs [eng, ASS], Full Subtitles (Kametsu edit) [eng, ASS]
Additional Info
General
Unique ID                                : 197431560185145661293332320158335778286 (0x9487EF7496F0BCF3ACDC4B209EE23DEE)
Complete name                            : [MK] One Punch Man - 06 [BD 720p][Hi10][Dual-Audio][FFBDD0FD].mkv
Format                                   : Matroska
Format version                           : Version 4 / Version 2
File size                                : 1.01 GiB
Duration                                 : 24 min 21 s
Overall bit rate                         : 5 922 kb/s
Movie name                               : [MK] One Punch Man - 06 [BD 720p][Hi10][Dual-Aduio]
Encoded date                             : UTC 2017-09-10 11:32:11
Writing application                      : mkvmerge v15.0.0 ('Duel with the Devil') 64-bit
Writing library                          : libebml v1.3.5 + libmatroska v1.4.5
Attachments                              : BellGothicStd-Black.otf / Teen.ttf / StoneSansStd-Semibold.otf / Rosario-Bold.ttf / Rosario-BoldItalic.ttf / SubClearSans-Bold.ttf / Brush Strokes.ttf / CentraleSansRnd-ExtraBold.ttf / DISTInkingFxd-Bold.otf / Franchise-Bold-hinted.ttf / JennaSue.ttf

Video
ID                                       : 1
Format                                   : AVC
Format/Info                              : Advanced Video Codec
Format profile                           : High 10@L4.1
Format settings, CABAC                   : Yes
Format settings, ReFrames                : 9 frames
Codec ID                                 : V_MPEG4/ISO/AVC
Duration                                 : 24 min 21 s
Bit rate                                 : 5 534 kb/s
Width                                    : 1 280 pixels
Height                                   : 720 pixels
Display aspect ratio                     : 16:9
Frame rate mode                          : Constant
Frame rate                               : 23.976 (24000/1001) FPS
Color space                              : YUV
Chroma subsampling                       : 4:2:0
Bit depth                                : 10 bits
Scan type                                : Progressive
Bits/(Pixel*Frame)                       : 0.250
Stream size                              : 964 MiB (93%)
Title                                    : 720p BD [Beatrice-raws]
Writing library                          : x264 core 148 r2579 73ae2d1
Encoding settings                        : cabac=1 / ref=9 / deblock=1:-2:-2 / analyse=0x3:0x113 / me=umh / subme=9 / psy=1 / psy_rd=0.90:0.00 / mixed_ref=1 / me_range=32 / chroma_me=1 / trellis=2 / 8x8dct=1 / cqm=0 / deadzone=21,11 / fast_pskip=1 / chroma_qp_offset=-2 / threads=6 / lookahead_threads=1 / sliced_threads=0 / nr=0 / decimate=1 / interlaced=0 / bluray_compat=0 / constrained_intra=0 / bframes=11 / b_pyramid=2 / b_adapt=2 / b_bias=0 / direct=1 / weightb=1 / open_gop=0 / weightp=2 / keyint=240 / keyint_min=23 / scenecut=40 / intra_refresh=0 / rc=crf / mbtree=0 / crf=15.0 / qcomp=0.70 / qpmin=0 / qpmax=81 / qpstep=4 / ip_ratio=1.40 / pb_ratio=1.30 / aq=1:1.00
Language                                 : Japanese
Default                                  : Yes
Forced                                   : No
Color range                              : Limited
Color primaries                          : BT.709
Transfer characteristics                 : BT.709
Matrix coefficients                      : BT.709

Audio #1
ID                                       : 2
Format                                   : AAC
Format/Info                              : Advanced Audio Codec
Format profile                           : LC
Codec ID                                 : A_AAC
Duration                                 : 24 min 21 s
Bit rate                                 : 186 kb/s
Channel(s)                               : 2 channels
Channel positions                        : Front: L R
Sampling rate                            : 48.0 kHz
Frame rate                               : 46.875 FPS (1024 spf)
Compression mode                         : Lossy
Delay relative to video                  : 9 ms
Stream size                              : 32.4 MiB (3%)
Title                                    : 2.0Ch AAC 192kbs
Language                                 : English
Default                                  : Yes
Forced                                   : Yes

Audio #2
ID                                       : 3
Format                                   : AAC
Format/Info                              : Advanced Audio Codec
Format profile                           : LC
Codec ID                                 : A_AAC
Duration                                 : 24 min 21 s
Bit rate                                 : 187 kb/s
Channel(s)                               : 2 channels
Channel positions                        : Front: L R
Sampling rate                            : 48.0 kHz
Frame rate                               : 46.875 FPS (1024 spf)
Compression mode                         : Lossy
Delay relative to video                  : 9 ms
Stream size                              : 32.6 MiB (3%)
Title                                    : 2.0Ch AAC 192kbs
Language                                 : Japanese
Default                                  : No
Forced                                   : No

Text #1
ID                                       : 4
Format                                   : ASS
Codec ID                                 : S_TEXT/ASS
Codec ID/Info                            : Advanced Sub Station Alpha
Duration                                 : 22 min 13 s
Bit rate                                 : 2 749 b/s
Count of elements                        : 3609
Compression mode                         : Lossless
Stream size                              : 447 KiB (0%)
Title                                    : Signs & Songs
Language                                 : English
Default                                  : Yes
Forced                                   : Yes

Text #2
ID                                       : 5
Format                                   : ASS
Codec ID                                 : S_TEXT/ASS
Codec ID/Info                            : Advanced Sub Station Alpha
Duration                                 : 24 min 17 s
Bit rate                                 : 2 638 b/s
Count of elements                        : 3991
Compression mode                         : Lossless
Stream size                              : 469 KiB (0%)
Title                                    : Full Subtitles (Kametsu edit)
Language                                 : English
Default                                  : No
Forced                                   : No

Menu
00:00:00.000                             : en:Intro
00:03:08.980                             : en:Opening
00:04:39.029                             : en:Part A
00:10:09.067                             : en:Part B
00:21:18.068                             : en:Ending
00:22:48.033                             : en:Outro
00:24:00.063                             : en:Preview

Other Files in this Torrent
[MK] One Punch Man - 06 [BD 720p][Hi10][Dual-Audio][FFBDD0FD].mkv
beta
Anime DDL+NZB mirror
Current Time: 30/11/2021 09:02



About/FAQs

Discord