S02/[AnimeRG] Mobile Suit Gundam Wing (1998 Movie) Endless Waltz - Special Edition [1080p] [Dual-Audio] [BD] [Multi-Sub] [HEVC] [x265] [pseudo].mkv


File Size790.4 MB (828,808,298 bytes)
DownloadAnonFiles | ClickNUpload | DropAPK | Free
MultiUp: Part1
  • BdUpload
  • DownAce
  • Fichier
  • FileCloud
  • Filerio
  • FilesCdn
  • IndiShare
  • Kbagi
  • Turbobit
  • UpToBox
  • Uppit
, Part2
  • BdUpload
  • DownAce
  • Fichier
  • FileCloud
  • Filerio
  • FilesCdn
  • IndiShare
  • Kbagi
  • Turbobit
  • UpToBox
  • Uppit

Sendspace: Part1, Part2, Part3
SolidFiles: Part1, Part2
ZippyShare: Part1, Part2
HashesCRC32: 4E2C40C0, MD5: 8549D63AB306786E47C9D3DE37EC9EA6, SHA1: 5DCAFCB536BDD9377E96E488A0E9DAE9C600A66B, SHA256: DE1377024CE5F95874A8D9206746A4333902C97DF0A388E71F99C6D625B6C3B3, ED2K: 481A2A7BDD767498C0645F108E430BB3
Screenshots
screenshotscreenshotscreenshotscreenshotscreenshot
SubtitlesAll Attachments | English (Signs / Songs) [eng, ASS], English (Full) [eng, ASS], Spanish (Full) [spa, ASS], Japanese (Full) [jpn, PGS]
Additional Info
General
Unique ID                                : 67783850909905446750364115338408182577 (0x32FEB1DFCF7AB0949C996EE74DCF4331)
Complete name                            : [AnimeRG] Mobile Suit Gundam Wing (1998 Movie) Endless Waltz - Special Edition [1080p] [Dual-Audio] [BD] [Multi-Sub] [HEVC] [x265] [pseudo].mkv
Format                                   : Matroska
Format version                           : Version 4
File size                                : 790 MiB
Duration                                 : 1 h 30 min
Overall bit rate                         : 1 223 kb/s
Encoded date                             : UTC 2020-08-21 14:11:43
Writing application                      : mkvmerge v49.0.0 ('Sick Of Losing Soulmates') 64-bit
Writing library                          : libebml v1.4.0 + libmatroska v1.6.1
Attachments                              : 2_ENTSANI.ttf / calibrib.ttf / HelveticaLTStd-Bold.otf

Video
ID                                       : 1
Format                                   : HEVC
Format/Info                              : High Efficiency Video Coding
Format profile                           : Main@L5@Main
Codec ID                                 : V_MPEGH/ISO/HEVC
Duration                                 : 1 h 30 min
Bit rate                                 : 1 104 kb/s
Width                                    : 1 424 pixels
Height                                   : 1 072 pixels
Display aspect ratio                     : 4:3
Frame rate mode                          : Constant
Frame rate                               : 23.976 (24000/1001) FPS
Standard                                 : NTSC
Color space                              : YUV
Chroma subsampling                       : 4:2:0
Bit depth                                : 8 bits
Bits/(Pixel*Frame)                       : 0.030
Stream size                              : 713 MiB (90%)
Writing library                          : x265 2.0+2-70581d6cd065:[Windows][MSVC 1900][64 bit] 8bit
Encoding settings                        : wpp / ctu=64 / min-cu-size=8 / max-tu-size=32 / tu-intra-depth=1 / tu-inter-depth=1 / me=3 / subme=5 / merange=30 / no-rect / no-amp / max-merge=2 / temporal-mvp / no-early-skip / rskip / rdpenalty=0 / no-tskip / no-tskip-fast / strong-intra-smoothing / no-lossless / no-cu-lossless / no-constrained-intra / no-fast-intra / open-gop / no-temporal-layers / interlace=0 / keyint=240 / min-keyint=23 / scenecut=40 / rc-lookahead=240 / lookahead-slices=0 / bframes=16 / bframe-bias=0 / b-adapt=2 / ref=5 / limit-refs=3 / no-limit-modes / weightp / weightb / aq-mode=2 / qg-size=64 / aq-strength=1.00 / cbqpoffs=0 / crqpoffs=0 / rd=3 / psy-rd=2.00 / rdoq-level=0 / psy-rdoq=0.00 / no-rd-refine / signhide / deblock=1:1 / sao / no-sao-non-deblock / b-pyramid / cutree / no-intra-refresh / rc=crf / crf=25.0 / qcomp=0.60 / qpmin=0 / qpmax=51 / qpstep=4 / vbv-maxrate=5000 / vbv-bufsize=2000 / crf-max=32.0 / ipratio=1.40 / pbratio=1.30
Default                                  : Yes
Forced                                   : No
Color range                              : Limited
Color primaries                          : BT.709
Transfer characteristics                 : BT.709
Matrix coefficients                      : BT.709

Audio
ID                                       : 2
Format                                   : AAC LC
Format/Info                              : Advanced Audio Codec Low Complexity
Codec ID                                 : A_AAC-2
Duration                                 : 1 h 30 min
Bit rate                                 : 102 kb/s
Channel(s)                               : 2 channels
Channel layout                           : L R
Sampling rate                            : 48.0 kHz
Frame rate                               : 46.875 FPS (1024 SPF)
Compression mode                         : Lossy
Delay relative to video                  : 20 ms
Stream size                              : 65.9 MiB (8%)
Title                                    : Japanese Stereo
Language                                 : Japanese
Default                                  : No
Forced                                   : No

Text #1
ID                                       : 3
Format                                   : ASS
Codec ID                                 : S_TEXT/ASS
Codec ID/Info                            : Advanced Sub Station Alpha
Duration                                 : 1 h 27 min
Bit rate                                 : 7 b/s
Count of elements                        : 80
Compression mode                         : Lossless
Stream size                              : 4.99 KiB (0%)
Title                                    : English (Signs / Songs)
Language                                 : English
Default                                  : Yes
Forced                                   : No

Text #2
ID                                       : 4
Format                                   : ASS
Codec ID                                 : S_TEXT/ASS
Codec ID/Info                            : Advanced Sub Station Alpha
Duration                                 : 1 h 28 min
Bit rate                                 : 100 b/s
Count of elements                        : 1195
Compression mode                         : Lossless
Stream size                              : 64.9 KiB (0%)
Title                                    : English (Full)
Language                                 : English
Default                                  : No
Forced                                   : No

Text #3
ID                                       : 5
Format                                   : ASS
Codec ID                                 : S_TEXT/ASS
Codec ID/Info                            : Advanced Sub Station Alpha
Duration                                 : 1 h 24 min
Bit rate                                 : 101 b/s
Count of elements                        : 1113
Compression mode                         : Lossless
Stream size                              : 63.1 KiB (0%)
Title                                    : Spanish (Full)
Language                                 : Spanish
Default                                  : No
Forced                                   : No

Text #4
ID                                       : 6
Format                                   : PGS
Muxing mode                              : zlib
Codec ID                                 : S_HDMV/PGS
Codec ID/Info                            : Picture based subtitle format used on BDs/HD-DVDs
Duration                                 : 1 h 22 min
Bit rate                                 : 33.0 kb/s
Count of elements                        : 1897
Stream size                              : 19.5 MiB (2%)
Title                                    : Japanese (Full)
Language                                 : Japanese
Default                                  : No
Forced                                   : No

Menu
00:00:00.000                             : en:1
00:02:54.049                             : en:2
00:04:39.196                             : en:3
00:09:30.862                             : en:4
00:12:31.084                             : en:5
00:13:21.217                             : en:6
00:16:41.751                             : en:7
00:18:15.720                             : en:8
00:18:23.686                             : en:9
00:19:49.480                             : en:10
00:23:03.382                             : en:11
00:23:30.826                             : en:12
00:24:33.097                             : en:13
00:24:42.064                             : en:14
00:27:42.744                             : en:15
00:29:18.840                             : en:16
00:30:59.858                             : en:17
00:33:44.940                             : en:18
00:35:43.850                             : en:19
00:36:40.865                             : en:20
00:37:21.322                             : en:21
00:39:27.699                             : en:22
00:41:37.829                             : en:23
00:45:35.066                             : en:24
00:47:53.162                             : en:25
00:48:44.046                             : en:26
00:49:30.759                             : en:27
00:50:15.846                             : en:28
00:53:36.797                             : en:29
00:54:37.608                             : en:30
00:55:42.047                             : en:31
00:57:46.088                             : en:32
00:58:57.033                             : en:33
01:01:19.676                             : en:34
01:05:38.226                             : en:35
01:07:01.809                             : en:36
01:07:24.582                             : en:37
01:13:18.269                             : en:38
01:14:59.036                             : en:39
01:17:49.748                             : en:40
01:18:54.063                             : en:41
01:20:28.073                             : en:42
01:21:08.322                             : en:43
01:23:56.490                             : en:44

Other Files in this Torrent
S02/[AnimeRG] Mobile Suit Gundam Wing (1998 Movie) Endless Waltz - Special Edition [1080p] [Dual-Audio] [BD] [Multi-Sub] [HEVC] [x265] [pseudo].mkv
beta
Anime DDL+NZB mirror
Current Time: 19/06/2024 21:24



About/FAQs

Discord