File Size16.03 MB (16,812,840 bytes)
DownloadAnonFiles | ClickNUpload | DropAPK | Free | MultiUp
  • BdUpload
  • DownAce
  • Fichier
  • FileCloud
  • Filerio
  • FilesCdn
  • IndiShare
  • Kbagi
  • Turbobit
  • UpToBox
  • Uppit
| Sendspace | SolidFiles | ZippyShare
HashesCRC32: 41B847AF, MD5: 7ED55DE701E65FECC3B3EA6E03D8B068, SHA1: BD814EA3479B79B265744575B578F34C264B17FC, SHA256: 5713EE049102309AACF2C75EF24A680920AB1F8444A64E8AB7168685BE32B0B9, ED2K: 664E0AF27F088CDC7AE55235FFE2372A
Screenshots
screenshot
Additional Info
General
Unique ID                                : 224791062975726744728524208150120429195 (0xA91D2F16CB43DE65A7ED9CFBB3AAF68B)
Complete name                            : [AnimeRG] Clean OP 2 Ver. B [1080p] [x265] [pseudo].mkv
Format                                   : Matroska
Format version                           : Version 4
File size                                : 16.0 MiB
Duration                                 : 1 min 20 s
Overall bit rate                         : 1 678 kb/s
Encoded date                             : UTC 2017-03-09 01:54:03
Writing application                      : mkvmerge v9.2.0 ('Photograph') 64bit
Writing library                          : libebml v1.3.3 + libmatroska v1.4.4

Video
ID                                       : 1
Format                                   : HEVC
Format/Info                              : High Efficiency Video Coding
Format profile                           : Main@L5@Main
Codec ID                                 : V_MPEGH/ISO/HEVC
Duration                                 : 1 min 20 s
Bit rate                                 : 1 576 kb/s
Width                                    : 1 440 pixels
Height                                   : 1 072 pixels
Display aspect ratio                     : 4:3
Frame rate mode                          : Constant
Frame rate                               : 23.976 (24000/1001) FPS
Standard                                 : NTSC
Color space                              : YUV
Chroma subsampling                       : 4:2:0
Bit depth                                : 8 bits
Bits/(Pixel*Frame)                       : 0.043
Stream size                              : 15.0 MiB (94%)
Writing library                          : x265 2.0+2-70581d6cd065:[Windows][MSVC 1900][64 bit] 8bit
Encoding settings                        : wpp / ctu=64 / min-cu-size=8 / max-tu-size=32 / tu-intra-depth=1 / tu-inter-depth=1 / me=3 / subme=5 / merange=30 / no-rect / no-amp / max-merge=2 / temporal-mvp / no-early-skip / rskip / rdpenalty=0 / no-tskip / no-tskip-fast / strong-intra-smoothing / no-lossless / no-cu-lossless / no-constrained-intra / no-fast-intra / open-gop / no-temporal-layers / interlace=0 / keyint=240 / min-keyint=23 / scenecut=40 / rc-lookahead=240 / lookahead-slices=0 / bframes=16 / bframe-bias=0 / b-adapt=2 / ref=5 / limit-refs=3 / no-limit-modes / weightp / weightb / aq-mode=2 / qg-size=64 / aq-strength=1.00 / cbqpoffs=0 / crqpoffs=0 / rd=3 / psy-rd=2.00 / rdoq-level=0 / psy-rdoq=0.00 / no-rd-refine / signhide / deblock=1:1 / sao / no-sao-non-deblock / b-pyramid / cutree / no-intra-refresh / rc=crf / crf=25.0 / qcomp=0.60 / qpmin=0 / qpmax=51 / qpstep=4 / vbv-maxrate=5000 / vbv-bufsize=2000 / crf-max=32.0 / ipratio=1.40 / pbratio=1.30
Default                                  : Yes
Forced                                   : No
Color range                              : Limited
Color primaries                          : BT.709
Transfer characteristics                 : BT.709
Matrix coefficients                      : BT.709

Audio
ID                                       : 2
Format                                   : AAC LC
Format/Info                              : Advanced Audio Codec Low Complexity
Codec ID                                 : A_AAC-2
Duration                                 : 1 min 20 s
Bit rate                                 : 101 kb/s
Channel(s)                               : 2 channels
Channel layout                           : L R
Sampling rate                            : 48.0 kHz
Frame rate                               : 46.875 FPS (1024 SPF)
Compression mode                         : Lossy
Delay relative to video                  : 20 ms
Stream size                              : 989 KiB (6%)
Title                                    : Japanese Stereo
Language                                 : Japanese
Default                                  : Yes
Forced                                   : No

Other Files in this Torrent
Extras/[AnimeRG] Clean OP 2 Ver. B [1080p] [x265] [pseudo].mkv
beta
Anime DDL+NZB mirror
Current Time: 19/06/2024 21:02



About/FAQs

Discord