File Size196.7 MB (206,306,364 bytes)
DownloadAnonFiles | ClickNUpload | DropAPK | Free | MultiUp
  • BdUpload
  • DownAce
  • Fichier
  • FileCloud
  • Filerio
  • FilesCdn
  • IndiShare
  • Kbagi
  • Turbobit
  • UpToBox
  • Uppit
| Sendspace | SolidFiles | ZippyShare
HashesCRC32: 81100970, MD5: 8237DE3F40118D14CD7AE27007442345, SHA1: A49236C1F21EF882844EA15692AA875200370BF3, SHA256: 84E36DA771B7D9B0AB03D9F2C85F7D777AFD0C977DB3CA5F4C229A0E6DB28D97, ED2K: 7A1DEB35A444D576FFB708047B5208B7
Screenshots
screenshotscreenshotscreenshotscreenshotscreenshot
SubtitlesAll Attachments | English (Signs / Songs) [eng, ASS], English (Full) [eng, ASS]
Additional Info
General
Unique ID                                : 31568842637244782814836347562300608842 (0x17BFF01C793A46EF04DC3EFAC869114A)
Complete name                            : [AnimeRG] Gundam Wing - 40 [1080p] [x265] [pseudo].mkv
Format                                   : Matroska
Format version                           : Version 4
File size                                : 197 MiB
Duration                                 : 23 min 59 s
Overall bit rate                         : 1 147 kb/s
Encoded date                             : UTC 2020-08-21 14:10:42
Writing application                      : mkvmerge v49.0.0 ('Sick Of Losing Soulmates') 64-bit
Writing library                          : libebml v1.4.0 + libmatroska v1.6.1
Attachments                              : calibri.ttf / calibrii.ttf / Explora.ttf / Material_Sans.otf / msjhbd.ttc

Video
ID                                       : 1
Format                                   : HEVC
Format/Info                              : High Efficiency Video Coding
Format profile                           : Main@L5@Main
Codec ID                                 : V_MPEGH/ISO/HEVC
Duration                                 : 23 min 59 s
Bit rate                                 : 962 kb/s
Width                                    : 1 440 pixels
Height                                   : 1 072 pixels
Display aspect ratio                     : 4:3
Frame rate mode                          : Constant
Frame rate                               : 23.976 (24000/1001) FPS
Standard                                 : NTSC
Color space                              : YUV
Chroma subsampling                       : 4:2:0
Bit depth                                : 8 bits
Bits/(Pixel*Frame)                       : 0.026
Stream size                              : 165 MiB (84%)
Writing library                          : x265 2.0+2-70581d6cd065:[Windows][MSVC 1900][64 bit] 8bit
Encoding settings                        : wpp / ctu=64 / min-cu-size=8 / max-tu-size=32 / tu-intra-depth=1 / tu-inter-depth=1 / me=3 / subme=5 / merange=30 / no-rect / no-amp / max-merge=2 / temporal-mvp / no-early-skip / rskip / rdpenalty=0 / no-tskip / no-tskip-fast / strong-intra-smoothing / no-lossless / no-cu-lossless / no-constrained-intra / no-fast-intra / open-gop / no-temporal-layers / interlace=0 / keyint=240 / min-keyint=23 / scenecut=40 / rc-lookahead=240 / lookahead-slices=0 / bframes=16 / bframe-bias=0 / b-adapt=2 / ref=5 / limit-refs=3 / no-limit-modes / weightp / weightb / aq-mode=2 / qg-size=64 / aq-strength=1.00 / cbqpoffs=0 / crqpoffs=0 / rd=3 / psy-rd=2.00 / rdoq-level=0 / psy-rdoq=0.00 / no-rd-refine / signhide / deblock=1:1 / sao / no-sao-non-deblock / b-pyramid / cutree / no-intra-refresh / rc=crf / crf=25.0 / qcomp=0.60 / qpmin=0 / qpmax=51 / qpstep=4 / vbv-maxrate=5000 / vbv-bufsize=2000 / crf-max=32.0 / ipratio=1.40 / pbratio=1.30
Default                                  : Yes
Forced                                   : No
Color range                              : Limited
Color primaries                          : BT.709
Transfer characteristics                 : BT.709
Matrix coefficients                      : BT.709

Audio
ID                                       : 2
Format                                   : AAC LC
Format/Info                              : Advanced Audio Codec Low Complexity
Codec ID                                 : A_AAC-2
Duration                                 : 23 min 59 s
Bit rate                                 : 93.2 kb/s
Channel(s)                               : 2 channels
Channel layout                           : L R
Sampling rate                            : 48.0 kHz
Frame rate                               : 46.875 FPS (1024 SPF)
Compression mode                         : Lossy
Delay relative to video                  : 20 ms
Stream size                              : 16.0 MiB (8%)
Title                                    : Japanese Stereo
Language                                 : Japanese
Default                                  : No
Forced                                   : No

Text #1
ID                                       : 3
Format                                   : ASS
Codec ID                                 : S_TEXT/ASS
Codec ID/Info                            : Advanced Sub Station Alpha
Duration                                 : 23 min 46 s
Bit rate                                 : 17 b/s
Count of elements                        : 25
Compression mode                         : Lossless
Stream size                              : 3.13 KiB (0%)
Title                                    : English (Signs / Songs)
Language                                 : English
Default                                  : Yes
Forced                                   : No

Text #2
ID                                       : 4
Format                                   : ASS
Codec ID                                 : S_TEXT/ASS
Codec ID/Info                            : Advanced Sub Station Alpha
Duration                                 : 23 min 46 s
Bit rate                                 : 131 b/s
Count of elements                        : 359
Compression mode                         : Lossless
Stream size                              : 22.9 KiB (0%)
Title                                    : English (Full)
Language                                 : English
Default                                  : No
Forced                                   : No

Menu
00:00:00.000                             : :Opening Credits
00:01:20.306                             : :Part 1
00:12:24.446                             : :Part 2
00:22:17.415                             : :End Credits
00:23:27.785                             : :Next Episode Preview

Other Files in this Torrent
S01/[AnimeRG] Gundam Wing - 40 [1080p] [x265] [pseudo].mkv
beta
Anime DDL+NZB mirror
Current Time: 19/06/2024 19:31



About/FAQs

Discord