File Size50.59 MB (53,050,592 bytes)
DownloadClickNUpload | DiskoKosmiko | Go4Up | Jheberg | MultiUp | OpenLoad | Sendspace | SolidFiles | ZippyShare
HashesCRC32: 788F732C, MD5: EC844F5E480F75B0F7EF86F4AB4E82AD, SHA1: 17CC10DC7D42285DAE3FC3E650B9DEAC569775E0, SHA256: BBDDB38CCD758FCDE5378E298CD4A623484BB5669D40E691D29242028487386B, ED2K: BFA91F15BE7368763738BBB05C845A26
Screenshots
screenshotscreenshotscreenshotscreenshotscreenshot
SubtitlesAll Attachments | eng [ASS], eng [ASS]
Additional Info
General
Unique ID                                : 175274707207827876033269968517694012344 (0x83DCAE430B87A331CF0F3CA79014BBB8)
Complete name                            : One Punch Man - SP2 [BD 720p]_[788F732C].mkv
Format                                   : Matroska
Format version                           : Version 4 / Version 2
File size                                : 50.6 MiB
Duration                                 : 11 min 39 s
Overall bit rate                         : 606 kb/s
Encoded date                             : UTC 2018-03-27 01:47:22
Writing application                      : mkvmerge v20.0.0 ('I Am The Sun') 64-bit
Writing library                          : libebml v1.3.5 + libmatroska v1.4.8
Attachments                              : RiiT_F.otf / bellgothicstd-black.otf / DFFangYuanW7-B5.ttc / DISTInkingFxd-Bold.otf / DISTInking-Regular.otf / JENKINSV2.TTF / Rosario-Bold.ttf / Rosario-BoldItalic.ttf / SubClearSans-Bold.ttf
Encoding Gui                             : Hybrid 2018.02.18.1

Video
ID                                       : 1
Format                                   : HEVC
Format/Info                              : High Efficiency Video Coding
Format profile                           : Main 10@L3.1@Main
Codec ID                                 : V_MPEGH/ISO/HEVC
Duration                                 : 11 min 39 s
Bit rate                                 : 393 kb/s
Width                                    : 1 280 pixels
Height                                   : 720 pixels
Display aspect ratio                     : 16:9
Frame rate mode                          : Constant
Frame rate                               : 23.976 (24000/1001) FPS
Color space                              : YUV
Chroma subsampling                       : 4:2:0
Bit depth                                : 10 bits
Bits/(Pixel*Frame)                       : 0.018
Stream size                              : 32.8 MiB (65%)
Writing library                          : x265 2.6+42-52782aeb2081:[Windows][GCC 7.3.0][64 bit] 10bit
Encoding settings                        : cpuid=1049087 / frame-threads=1 / numa-pools=3 / wpp / no-pmode / pme / no-psnr / no-ssim / log-level=2 / input-csp=1 / input-res=1280x720 / interlace=0 / total-frames=0 / level-idc=0 / high-tier=1 / uhd-bd=0 / ref=2 / no-allow-non-conformance / repeat-headers / annexb / aud / no-hrd / info / hash=0 / no-temporal-layers / open-gop / min-keyint=23 / keyint=250 / gop-lookahead=0 / bframes=8 / b-adapt=2 / b-pyramid / bframe-bias=0 / rc-lookahead=15 / lookahead-slices=4 / scenecut=60 / radl=0 / no-intra-refresh / ctu=64 / min-cu-size=8 / no-rect / no-amp / max-tu-size=32 / tu-inter-depth=1 / tu-intra-depth=1 / limit-tu=0 / rdoq-level=2 / dynamic-rd=0.00 / no-ssim-rd / signhide / no-tskip / nr-intra=0 / nr-inter=0 / no-constrained-intra / strong-intra-smoothing / max-merge=2 / limit-refs=3 / limit-modes / me=2 / subme=5 / merange=57 / temporal-mvp / weightp / weightb / no-analyze-src-pics / deblock=0:0 / sao / no-sao-non-deblock / rd=2 / early-skip / rskip / fast-intra / no-tskip-fast / no-cu-lossless / no-b-intra / no-splitrd-skip / rdpenalty=0 / psy-rd=2.15 / psy-rdoq=1.30 / no-rd-refine / no-lossless / cbqpoffs=0 / crqpoffs=0 / rc=crf / crf=22.7 / qcomp=0.50 / qpstep=4 / stats-write=0 / stats-read=0 / ipratio=1.40 / pbratio=1.30 / aq-mode=1 / aq-strength=0.73 / cutree / zone-count=0 / no-strict-cbr / qg-size=64 / no-rc-grain / qpmax=69 / qpmin=0 / no-const-vbv / sar=1 / overscan=0 / videoformat=5 / range=0 / colorprim=1 / transfer=1 / colormatrix=2 / chromaloc=0 / display-window=0 / max-cll=0,0 / min-luma=0 / max-luma=1023 / log2-max-poc-lsb=8 / vui-timing-info / vui-hrd-info / slices=1 / no-opt-qp-pps / no-opt-ref-list-length-pps / no-multi-pass-opt-rps / scenecut-bias=0.05 / no-opt-cu-delta-qp / aq-motion / no-hdr / no-hdr-opt / no-dhdr10-opt / analysis-reuse-level=5 / scale-factor=0 / refine-intra=0 / refine-inter=0 / refine-mv=0 / limit-sao / ctu-info=0 / no-lowpass-dct / refine-mv-type=0 / copy-pic=1
Language                                 : Japanese
Default                                  : Yes
Forced                                   : Yes
Color range                              : Limited
Color primaries                          : BT.709
Transfer characteristics                 : BT.709

Audio
ID                                       : 2
Format                                   : Opus
Codec ID                                 : A_OPUS
Duration                                 : 11 min 39 s
Bit rate                                 : 75.7 kb/s
Channel(s)                               : 2 channels
Channel positions                        : Front: L R
Sampling rate                            : 44.1 kHz
Frame rate                               : 50.000 FPS (882 spf)
Compression mode                         : Lossy
Delay relative to video                  : 9 ms
Stream size                              : 6.31 MiB (12%)
Title                                    : 2.0Ch AAC 192kb/s
Language                                 : Japanese
Default                                  : Yes
Forced                                   : No

Text #1
ID                                       : 3
Format                                   : ASS
Codec ID                                 : S_TEXT/ASS
Codec ID/Info                            : Advanced Sub Station Alpha
Duration                                 : 11 min 37 s
Bit rate                                 : 542 b/s
Count of elements                        : 372
Compression mode                         : Lossless
Stream size                              : 46.2 KiB (0%)
Language                                 : English
Default                                  : No
Forced                                   : Yes

Text #2
ID                                       : 4
Format                                   : ASS
Codec ID                                 : S_TEXT/ASS
Codec ID/Info                            : Advanced Sub Station Alpha
Duration                                 : 11 min 37 s
Bit rate                                 : 325 b/s
Count of elements                        : 178
Compression mode                         : Lossless
Stream size                              : 27.7 KiB (0%)
Language                                 : English
Default                                  : No
Forced                                   : No

Menu
00:00:00.000                             : en:00:00:00.054
00:00:00.054                             : en:00:00:00.054

Other Files in this Torrent
One Punch Man - SP2 [BD 720p]_[788F732C].mkv
beta
Anime DDL+NZB mirror
Current Time: 28/11/2021 06:27



About/FAQs

Discord