File Size114.8 MB (120,379,165 bytes)
DownloadClickNUpload | DiskoKosmiko | Go4Up | Jheberg | MultiUp | OpenLoad | Sendspace | SolidFiles | ZippyShare
HashesCRC32: 8DA98BF8, MD5: 668CED15525A8560CC10D65528AAB697, SHA1: F10B06C40C0FEAB3F01A654EAEAEDAB7144690F7, SHA256: F83692C11A422B28EC46AE95E2B53B9827467D88BB2DA349009901193BD86E42, ED2K: A27A9999764BC4A135CDE841718964F7
Screenshots
screenshotscreenshotscreenshotscreenshotscreenshot
SubtitlesAll Attachments | eng [ASS], eng [ASS]
Additional Info
General
Unique ID                                : 308463535864877813005271918258652955797 (0xE80FEA8214A6736058D78D9EC307C495)
Complete name                            : One Punch Man - 05 [BD 720p]_[8DA98BF8].mkv
Format                                   : Matroska
Format version                           : Version 4 / Version 2
File size                                : 115 MiB
Duration                                 : 24 min 21 s
Overall bit rate                         : 659 kb/s
Encoded date                             : UTC 2018-03-28 18:18:28
Writing application                      : mkvmerge v20.0.0 ('I Am The Sun') 64-bit
Writing library                          : libebml v1.3.5 + libmatroska v1.4.8
Attachments                              : BellGothicStd-Black.otf / Teen.ttf / StoneSansStd-Semibold.otf / Cheboyga.ttf / Copybook.TTF / CREABBRG.ttf / DFPLeiSho-SB.ttf / Franchise-Bold-hinted.ttf / JennaSue.ttf / Rosario-Bold.ttf / Rosario-BoldItalic.ttf / SWZ721H.ttf / AdobeHeiti-Kami.ttf / AllThatMatters.ttf / Brush Strokes.ttf / cambria.ttc / cambriab.ttf / CentraleSansRnd-ExtraBold.ttf
Encoding Gui                             : Hybrid 2018.02.18.1

Video
ID                                       : 1
Format                                   : HEVC
Format/Info                              : High Efficiency Video Coding
Format profile                           : Main 10@L3.1@Main
Codec ID                                 : V_MPEGH/ISO/HEVC
Duration                                 : 24 min 21 s
Bit rate                                 : 536 kb/s
Width                                    : 1 280 pixels
Height                                   : 720 pixels
Display aspect ratio                     : 16:9
Frame rate mode                          : Constant
Frame rate                               : 23.976 (24000/1001) FPS
Color space                              : YUV
Chroma subsampling                       : 4:2:0
Bit depth                                : 10 bits
Bits/(Pixel*Frame)                       : 0.024
Stream size                              : 93.3 MiB (81%)
Writing library                          : x265 2.6+42-52782aeb2081:[Windows][GCC 7.3.0][64 bit] 10bit
Encoding settings                        : cpuid=1049087 / frame-threads=1 / numa-pools=2 / wpp / no-pmode / pme / no-psnr / no-ssim / log-level=2 / input-csp=1 / input-res=1280x720 / interlace=0 / total-frames=0 / level-idc=0 / high-tier=1 / uhd-bd=0 / ref=2 / no-allow-non-conformance / no-repeat-headers / annexb / no-aud / no-hrd / info / hash=0 / no-temporal-layers / open-gop / min-keyint=23 / keyint=250 / gop-lookahead=0 / bframes=5 / b-adapt=2 / b-pyramid / bframe-bias=0 / rc-lookahead=15 / lookahead-slices=4 / scenecut=60 / radl=0 / no-intra-refresh / ctu=64 / min-cu-size=8 / no-rect / no-amp / max-tu-size=32 / tu-inter-depth=2 / tu-intra-depth=2 / limit-tu=0 / rdoq-level=2 / dynamic-rd=0.00 / no-ssim-rd / signhide / no-tskip / nr-intra=0 / nr-inter=0 / no-constrained-intra / strong-intra-smoothing / max-merge=2 / limit-refs=3 / limit-modes / me=1 / subme=3 / merange=57 / temporal-mvp / weightp / weightb / no-analyze-src-pics / deblock=0:0 / sao / sao-non-deblock / rd=2 / early-skip / rskip / fast-intra / no-tskip-fast / no-cu-lossless / no-b-intra / splitrd-skip / rdpenalty=0 / psy-rd=2.00 / psy-rdoq=0.00 / no-rd-refine / no-lossless / cbqpoffs=0 / crqpoffs=0 / rc=crf / crf=22.5 / qcomp=0.60 / qpstep=4 / stats-write=0 / stats-read=0 / ipratio=1.40 / pbratio=1.30 / aq-mode=1 / aq-strength=0.70 / cutree / zone-count=0 / no-strict-cbr / qg-size=64 / no-rc-grain / qpmax=69 / qpmin=0 / no-const-vbv / sar=1 / overscan=0 / videoformat=5 / range=0 / colorprim=2 / transfer=2 / colormatrix=1 / chromaloc=0 / display-window=0 / max-cll=0,0 / min-luma=0 / max-luma=1023 / log2-max-poc-lsb=8 / vui-timing-info / vui-hrd-info / slices=1 / no-opt-qp-pps / no-opt-ref-list-length-pps / no-multi-pass-opt-rps / scenecut-bias=0.05 / no-opt-cu-delta-qp / aq-motion / no-hdr / no-hdr-opt / no-dhdr10-opt / analysis-reuse-level=5 / scale-factor=0 / refine-intra=0 / refine-inter=0 / refine-mv=0 / limit-sao / ctu-info=0 / no-lowpass-dct / refine-mv-type=0 / copy-pic=1
Language                                 : Japanese
Default                                  : Yes
Forced                                   : Yes
Color range                              : Limited
Matrix coefficients                      : BT.709

Audio
ID                                       : 2
Format                                   : Opus
Codec ID                                 : A_OPUS
Duration                                 : 24 min 21 s
Bit rate                                 : 76.9 kb/s
Channel(s)                               : 2 channels
Channel positions                        : Front: L R
Sampling rate                            : 44.1 kHz
Frame rate                               : 50.000 FPS (882 spf)
Compression mode                         : Lossy
Delay relative to video                  : 9 ms
Stream size                              : 13.4 MiB (12%)
Title                                    : 2.0Ch AAC 192kbs
Language                                 : Japanese
Default                                  : Yes
Forced                                   : No

Text #1
ID                                       : 3
Format                                   : ASS
Codec ID                                 : S_TEXT/ASS
Codec ID/Info                            : Advanced Sub Station Alpha
Duration                                 : 24 min 18 s
Bit rate                                 : 10.5 kb/s
Count of elements                        : 8388
Compression mode                         : Lossless
Stream size                              : 1.82 MiB (2%)
Language                                 : English
Default                                  : No
Forced                                   : No

Text #2
ID                                       : 4
Format                                   : ASS
Codec ID                                 : S_TEXT/ASS
Codec ID/Info                            : Advanced Sub Station Alpha
Duration                                 : 24 min 18 s
Bit rate                                 : 10.3 kb/s
Count of elements                        : 8080
Compression mode                         : Lossless
Stream size                              : 1.79 MiB (2%)
Language                                 : English
Default                                  : No
Forced                                   : No

Menu
00:00:00.000                             : en:Intro
00:01:09.986                             : en:Opening
00:02:40.034                             : en:Part A
00:12:05.015                             : en:Part B
00:22:02.029                             : en:Ending
00:23:31.993                             : en:Outro
00:24:00.021                             : en:Preview

Other Files in this Torrent
One Punch Man - 05 [BD 720p]_[8DA98BF8].mkv
beta
Anime DDL+NZB mirror
Current Time: 09/12/2021 01:13



About/FAQs

Discord