File Size137.1 MB (143,794,291 bytes)
DownloadClickNUpload | DiskoKosmiko | Go4Up | Jheberg | MultiUp | OpenLoad | Sendspace | SolidFiles | ZippyShare
HashesCRC32: 72A1FDA4, MD5: 42862509CF637E16E225FEE34FED21D9, SHA1: 71A93835B1CB4CFAA476050735674F3C4C20F1E1, SHA256: 5C2DBFFB8659E2BB6B4DCD0AD71B1D7FA4802F35C9800129D40A4B6A2A8696C2, ED2K: D9084B969D359E57F810C21E6E4A3FB8
Screenshots
screenshotscreenshotscreenshotscreenshotscreenshot
SubtitlesAll Attachments | eng [ASS], eng [ASS]
Additional Info
General
Unique ID                                : 135089379846877063143611321988921074456 (0x65A144A78C4C66A9035541367042A318)
Complete name                            : One Punch Man - 03 [BD 720p]_[72A1FDA4].mkv
Format                                   : Matroska
Format version                           : Version 4 / Version 2
File size                                : 137 MiB
Duration                                 : 24 min 21 s
Overall bit rate                         : 787 kb/s
Encoded date                             : UTC 2018-03-28 08:37:56
Writing application                      : mkvmerge v20.0.0 ('I Am The Sun') 64-bit
Writing library                          : libebml v1.3.5 + libmatroska v1.4.8
Attachments                              : BellGothicStd-Black.otf / Teen.ttf / StoneSansStd-Semibold.otf / eartmbe.ttf / FastBrush.ttf / Franchise-Bold-hinted.ttf / JennaSue.ttf / Rosario-Bold.ttf / Rosario-BoldItalic.ttf / Brush Strokes.ttf
Encoding Gui                             : Hybrid 2018.02.18.1

Video
ID                                       : 1
Format                                   : HEVC
Format/Info                              : High Efficiency Video Coding
Format profile                           : Main 10@L3.1@Main
Codec ID                                 : V_MPEGH/ISO/HEVC
Duration                                 : 24 min 21 s
Bit rate                                 : 694 kb/s
Width                                    : 1 280 pixels
Height                                   : 720 pixels
Display aspect ratio                     : 16:9
Frame rate mode                          : Constant
Frame rate                               : 23.976 (24000/1001) FPS
Color space                              : YUV
Chroma subsampling                       : 4:2:0
Bit depth                                : 10 bits
Bits/(Pixel*Frame)                       : 0.031
Stream size                              : 121 MiB (88%)
Writing library                          : x265 2.6+42-52782aeb2081:[Windows][GCC 7.3.0][64 bit] 10bit
Encoding settings                        : cpuid=1049087 / frame-threads=1 / numa-pools=2 / wpp / no-pmode / pme / no-psnr / no-ssim / log-level=2 / input-csp=1 / input-res=1280x720 / interlace=0 / total-frames=0 / level-idc=0 / high-tier=1 / uhd-bd=0 / ref=2 / no-allow-non-conformance / no-repeat-headers / annexb / no-aud / no-hrd / info / hash=0 / no-temporal-layers / open-gop / min-keyint=23 / keyint=250 / gop-lookahead=0 / bframes=7 / b-adapt=2 / b-pyramid / bframe-bias=0 / rc-lookahead=15 / lookahead-slices=4 / scenecut=55 / radl=0 / no-intra-refresh / ctu=64 / min-cu-size=8 / no-rect / no-amp / max-tu-size=32 / tu-inter-depth=1 / tu-intra-depth=1 / limit-tu=0 / rdoq-level=2 / dynamic-rd=0.00 / no-ssim-rd / signhide / no-tskip / nr-intra=0 / nr-inter=0 / no-constrained-intra / strong-intra-smoothing / max-merge=2 / limit-refs=3 / limit-modes / me=1 / subme=3 / merange=57 / temporal-mvp / weightp / weightb / no-analyze-src-pics / deblock=0:0 / sao / no-sao-non-deblock / rd=2 / early-skip / rskip / fast-intra / no-tskip-fast / no-cu-lossless / no-b-intra / no-splitrd-skip / rdpenalty=0 / psy-rd=2.40 / psy-rdoq=1.60 / no-rd-refine / no-lossless / cbqpoffs=0 / crqpoffs=0 / rc=crf / crf=22.8 / qcomp=0.60 / qpstep=4 / stats-write=0 / stats-read=0 / ipratio=1.40 / pbratio=1.30 / aq-mode=1 / aq-strength=0.85 / cutree / zone-count=0 / no-strict-cbr / qg-size=32 / no-rc-grain / qpmax=69 / qpmin=0 / no-const-vbv / sar=1 / overscan=0 / videoformat=5 / range=0 / colorprim=2 / transfer=2 / colormatrix=2 / chromaloc=0 / display-window=0 / max-cll=0,0 / min-luma=0 / max-luma=1023 / log2-max-poc-lsb=8 / vui-timing-info / vui-hrd-info / slices=1 / no-opt-qp-pps / no-opt-ref-list-length-pps / no-multi-pass-opt-rps / scenecut-bias=0.05 / no-opt-cu-delta-qp / aq-motion / no-hdr / no-hdr-opt / no-dhdr10-opt / analysis-reuse-level=5 / scale-factor=0 / refine-intra=0 / refine-inter=0 / refine-mv=0 / limit-sao / ctu-info=0 / no-lowpass-dct / refine-mv-type=0 / copy-pic=1
Language                                 : Japanese
Default                                  : Yes
Forced                                   : Yes
Color range                              : Limited

Audio
ID                                       : 2
Format                                   : Opus
Codec ID                                 : A_OPUS
Duration                                 : 24 min 21 s
Bit rate                                 : 77.7 kb/s
Channel(s)                               : 2 channels
Channel positions                        : Front: L R
Sampling rate                            : 44.1 kHz
Frame rate                               : 50.000 FPS (882 spf)
Compression mode                         : Lossy
Delay relative to video                  : 9 ms
Stream size                              : 13.5 MiB (10%)
Title                                    : 2.0Ch AAC 192kbs
Language                                 : Japanese
Default                                  : Yes
Forced                                   : No

Text #1
ID                                       : 3
Format                                   : ASS
Codec ID                                 : S_TEXT/ASS
Codec ID/Info                            : Advanced Sub Station Alpha
Duration                                 : 24 min 20 s
Bit rate                                 : 3 426 b/s
Count of elements                        : 3939
Compression mode                         : Lossless
Stream size                              : 611 KiB (0%)
Language                                 : English
Default                                  : No
Forced                                   : Yes

Text #2
ID                                       : 4
Format                                   : ASS
Codec ID                                 : S_TEXT/ASS
Codec ID/Info                            : Advanced Sub Station Alpha
Duration                                 : 24 min 20 s
Bit rate                                 : 3 248 b/s
Count of elements                        : 3639
Compression mode                         : Lossless
Stream size                              : 579 KiB (0%)
Language                                 : English
Default                                  : No
Forced                                   : No

Menu
00:00:00.000                             : en:Intro
00:02:28.022                             : en:Opening
00:03:58.029                             : en:Part A
00:12:23.075                             : en:Part B
00:22:00.110                             : en:Ending
00:23:30.075                             : en:Outro
00:24:00.105                             : en:Preview

Other Files in this Torrent
One Punch Man - 03 [BD 720p]_[72A1FDA4].mkv
beta
Anime DDL+NZB mirror
Current Time: 28/11/2021 05:34



About/FAQs

Discord