File Size111.3 MB (116,708,842 bytes)
DownloadClickNUpload | DiskoKosmiko | Go4Up | Jheberg | MultiUp | OpenLoad | Sendspace | SolidFiles | ZippyShare
HashesCRC32: E13D8DFB, MD5: BA58FBEA6A0F00D067089CD6885ECB2E, SHA1: A78AFB45FB7FFBEB34786D888C945AB6E1C44452, SHA256: 2F81F0BCE60F9DA1C4797069B2742BDD8196C5BAECE7500E5E8CA6AA3D965B18, ED2K: 7EC466C719DD8E9B6FBB879D1B16B2AB
Screenshots
screenshotscreenshotscreenshotscreenshotscreenshot
SubtitlesAll Attachments | eng [ASS], eng [ASS]
Additional Info
General
Unique ID                                : 290143810426511035971281750052393038569 (0xDA47AA4EFF4EEFC63235FD3A5381B2E9)
Complete name                            : One Punch Man - 06 [BD 720p]_[E13D8DFB].mkv
Format                                   : Matroska
Format version                           : Version 4 / Version 2
File size                                : 111 MiB
Duration                                 : 24 min 21 s
Overall bit rate                         : 639 kb/s
Encoded date                             : UTC 2018-03-29 05:43:04
Writing application                      : mkvmerge v20.0.0 ('I Am The Sun') 64-bit
Writing library                          : libebml v1.3.5 + libmatroska v1.4.8
Attachments                              : BellGothicStd-Black.otf / Teen.ttf / StoneSansStd-Semibold.otf / Rosario-Bold.ttf / Rosario-BoldItalic.ttf / SubClearSans-Bold.ttf / Brush Strokes.ttf / CentraleSansRnd-ExtraBold.ttf / DISTInkingFxd-Bold.otf / Franchise-Bold-hinted.ttf / JennaSue.ttf
Encoding Gui                             : Hybrid 2018.02.18.1

Video
ID                                       : 1
Format                                   : HEVC
Format/Info                              : High Efficiency Video Coding
Format profile                           : Main 10@L3.1@Main
Codec ID                                 : V_MPEGH/ISO/HEVC
Duration                                 : 24 min 21 s
Bit rate                                 : 545 kb/s
Width                                    : 1 280 pixels
Height                                   : 720 pixels
Display aspect ratio                     : 16:9
Frame rate mode                          : Constant
Frame rate                               : 23.976 (24000/1001) FPS
Color space                              : YUV
Chroma subsampling                       : 4:2:0
Bit depth                                : 10 bits
Bits/(Pixel*Frame)                       : 0.025
Stream size                              : 94.9 MiB (85%)
Writing library                          : x265 2.6+42-52782aeb2081:[Windows][GCC 7.3.0][64 bit] 10bit
Encoding settings                        : cpuid=1049087 / frame-threads=1 / numa-pools=2 / wpp / no-pmode / pme / no-psnr / no-ssim / log-level=2 / input-csp=1 / input-res=1280x720 / interlace=0 / total-frames=0 / level-idc=0 / high-tier=1 / uhd-bd=0 / ref=2 / no-allow-non-conformance / no-repeat-headers / annexb / no-aud / no-hrd / info / hash=0 / no-temporal-layers / open-gop / min-keyint=23 / keyint=250 / gop-lookahead=0 / bframes=5 / b-adapt=2 / b-pyramid / bframe-bias=0 / rc-lookahead=15 / lookahead-slices=4 / scenecut=60 / radl=0 / no-intra-refresh / ctu=64 / min-cu-size=8 / no-rect / no-amp / max-tu-size=32 / tu-inter-depth=2 / tu-intra-depth=2 / limit-tu=0 / rdoq-level=2 / dynamic-rd=0.00 / no-ssim-rd / signhide / no-tskip / nr-intra=0 / nr-inter=0 / no-constrained-intra / strong-intra-smoothing / max-merge=2 / limit-refs=3 / limit-modes / me=1 / subme=3 / merange=57 / temporal-mvp / weightp / weightb / no-analyze-src-pics / deblock=0:0 / sao / sao-non-deblock / rd=2 / early-skip / rskip / fast-intra / no-tskip-fast / no-cu-lossless / no-b-intra / splitrd-skip / rdpenalty=0 / psy-rd=2.00 / psy-rdoq=0.00 / no-rd-refine / no-lossless / cbqpoffs=0 / crqpoffs=0 / rc=crf / crf=22.5 / qcomp=0.60 / qpstep=4 / stats-write=0 / stats-read=0 / ipratio=1.40 / pbratio=1.30 / aq-mode=1 / aq-strength=0.70 / cutree / zone-count=0 / no-strict-cbr / qg-size=64 / no-rc-grain / qpmax=69 / qpmin=0 / no-const-vbv / sar=1 / overscan=0 / videoformat=5 / range=0 / colorprim=2 / transfer=2 / colormatrix=2 / chromaloc=0 / display-window=0 / max-cll=0,0 / min-luma=0 / max-luma=1023 / log2-max-poc-lsb=8 / vui-timing-info / vui-hrd-info / slices=1 / no-opt-qp-pps / no-opt-ref-list-length-pps / no-multi-pass-opt-rps / scenecut-bias=0.05 / no-opt-cu-delta-qp / aq-motion / no-hdr / no-hdr-opt / no-dhdr10-opt / analysis-reuse-level=5 / scale-factor=0 / refine-intra=0 / refine-inter=0 / refine-mv=0 / limit-sao / ctu-info=0 / no-lowpass-dct / refine-mv-type=0 / copy-pic=1
Language                                 : Japanese
Default                                  : Yes
Forced                                   : Yes
Color range                              : Limited

Audio
ID                                       : 2
Format                                   : Opus
Codec ID                                 : A_OPUS
Duration                                 : 24 min 21 s
Bit rate                                 : 78.0 kb/s
Channel(s)                               : 2 channels
Channel positions                        : Front: L R
Sampling rate                            : 44.1 kHz
Frame rate                               : 50.000 FPS (882 spf)
Compression mode                         : Lossy
Delay relative to video                  : 9 ms
Stream size                              : 13.6 MiB (12%)
Title                                    : 2.0Ch AAC 192kbs
Language                                 : Japanese
Default                                  : Yes
Forced                                   : No

Text #1
ID                                       : 3
Format                                   : ASS
Codec ID                                 : S_TEXT/ASS
Codec ID/Info                            : Advanced Sub Station Alpha
Duration                                 : 22 min 13 s
Bit rate                                 : 3 583 b/s
Count of elements                        : 3609
Compression mode                         : Lossless
Stream size                              : 583 KiB (1%)
Language                                 : English
Default                                  : No
Forced                                   : No

Text #2
ID                                       : 4
Format                                   : ASS
Codec ID                                 : S_TEXT/ASS
Codec ID/Info                            : Advanced Sub Station Alpha
Duration                                 : 24 min 17 s
Bit rate                                 : 3 499 b/s
Count of elements                        : 3991
Compression mode                         : Lossless
Stream size                              : 623 KiB (1%)
Language                                 : English
Default                                  : No
Forced                                   : No

Menu
00:00:00.000                             : en:Intro
00:03:08.980                             : en:Opening
00:04:39.029                             : en:Part A
00:10:09.067                             : en:Part B
00:21:18.068                             : en:Ending
00:22:48.033                             : en:Outro
00:24:00.063                             : en:Preview

Other Files in this Torrent
One Punch Man - 06 [BD 720p]_[E13D8DFB].mkv
beta
Anime DDL+NZB mirror
Current Time: 28/11/2021 05:57



About/FAQs

Discord