One Piece - 963 - Oden`s Determination! Whitebeard`s Test! [A42C95CC].mkv


File Size646.8 MB (678,172,470 bytes)
DownloadClickNUpload | DownloadGG | GoFile | KrakenFiles | MdiaLoad
MultiUp: Part1
  • BdUpload
  • DownAce
  • Fichier
  • FileCloud
  • Filerio
  • FilesCdn
  • IndiShare
  • Kbagi
  • Turbobit
  • UpToBox
  • Uppit
, Part2
  • BdUpload
  • DownAce
  • Fichier
  • FileCloud
  • Filerio
  • FilesCdn
  • IndiShare
  • Kbagi
  • Turbobit
  • UpToBox
  • Uppit
HashesCRC32: 401BBE53, MD5: 130F5B1383F8BF8E353E560A8E5E4F5F, SHA1: DAC511E6D14D4A673FFA1CD4577404AC32FA6C57, SHA256: C86EF9CCE895BADA6CBB9B5770DE6750086B5F5C0F4E1C9CF6C7A772005F4070, ED2K: E666898A2A1700EB6CC2DF0485FB0BFF
Screenshots
screenshotscreenshotscreenshotscreenshotscreenshot
SubtitlesAll Attachments | English Subtitles [eng, ASS]
Additional Info
General
Unique ID                                : 83145920621765336479075980846559940571 (0x3E8D5263505D4446D2397890B40C4FDB)
Complete name                            : One Piece - 963 - Oden`s Determination! Whitebeard`s Test! [A42C95CC].mkv
Format                                   : Matroska
Format version                           : Version 4
File size                                : 647 MiB
Duration                                 : 24 min 9 s
Overall bit rate                         : 3 744 kb/s
Encoded date                             : UTC 2023-06-07 03:48:40
Writing application                      : mkvmerge v76.0 ('Celebration') 64-bit
Writing library                          : libebml v1.4.4 + libmatroska v1.7.1 / Lavf60.5.100

Video
ID                                       : 1
Format                                   : AVC
Format/Info                              : Advanced Video Codec
Format profile                           : High@L4
Format settings                          : CABAC / 3 Ref Frames
Format settings, CABAC                   : Yes
Format settings, Reference frames        : 3 frames
Codec ID                                 : V_MPEG4/ISO/AVC
Duration                                 : 24 min 9 s
Bit rate                                 : 3 485 kb/s
Width                                    : 1 280 pixels
Height                                   : 720 pixels
Display aspect ratio                     : 16:9
Frame rate mode                          : Constant
Frame rate                               : 23.976 (24000/1001) FPS
Color space                              : YUV
Chroma subsampling                       : 4:2:0
Bit depth                                : 8 bits
Scan type                                : Progressive
Bits/(Pixel*Frame)                       : 0.158
Stream size                              : 602 MiB (93%)
Title                                    : [Zoku] Rip
Default                                  : Yes
Forced                                   : No
Color range                              : Limited
Matrix coefficients                      : BT.709

Audio
ID                                       : 2
Format                                   : AAC LC
Format/Info                              : Advanced Audio Codec Low Complexity
Codec ID                                 : A_AAC-2
Duration                                 : 24 min 9 s
Bit rate                                 : 256 kb/s
Channel(s)                               : 2 channels
Channel layout                           : L R
Sampling rate                            : 48.0 kHz
Frame rate                               : 46.875 FPS (1024 SPF)
Compression mode                         : Lossy
Stream size                              : 44.2 MiB (7%)
Title                                    : English Audio
Language                                 : English
Default                                  : Yes
Forced                                   : No

Text
ID                                       : 3
Format                                   : ASS
Codec ID                                 : S_TEXT/ASS
Codec ID/Info                            : Advanced Sub Station Alpha
Duration                                 : 23 min 38 s
Bit rate                                 : 117 b/s
Count of elements                        : 334
Compression mode                         : Lossless
Stream size                              : 20.4 KiB (0%)
Title                                    : English Subtitles
Language                                 : English
Default                                  : No
Forced                                   : No

Other Files in this Torrent
One Piece - 963 - Oden`s Determination! Whitebeard`s Test! [A42C95CC].mkv
beta
Anime DDL+NZB mirror
Current Time: 20/07/2024 22:05



About/FAQs

Discord