One Piece - 954 - Its Name Is Enma! Oden`s Great Swords! [8E72C6A7].mkv


File Size666.8 MB (699,214,596 bytes)
DownloadClickNUpload | DownloadGG | GoFile | KrakenFiles | MdiaLoad
MultiUp: Part1
  • BdUpload
  • DownAce
  • Fichier
  • FileCloud
  • Filerio
  • FilesCdn
  • IndiShare
  • Kbagi
  • Turbobit
  • UpToBox
  • Uppit
, Part2
  • BdUpload
  • DownAce
  • Fichier
  • FileCloud
  • Filerio
  • FilesCdn
  • IndiShare
  • Kbagi
  • Turbobit
  • UpToBox
  • Uppit
HashesCRC32: C930527A, MD5: 8B548317FD16E2803ACF623A69B5DF3D, SHA1: 8D8438CED7EC540BB972300908DF74D205F795F3, SHA256: 3CADE36E3F24B83D6BD528438182518CC41F6AB30F40FD0B04424D1C51372D4F, ED2K: 95235C85C6CE20CB2A2CA43E306B5732
Screenshots
screenshotscreenshotscreenshotscreenshotscreenshot
SubtitlesAll Attachments | English Subtitles [eng, ASS]
Additional Info
General
Unique ID                                : 227346614479300694333424858766892637119 (0xAB095D818D9CFAB12F3DF3DEAF2C9BBF)
Complete name                            : One Piece - 954 - Its Name Is Enma! Oden`s Great Swords! [8E72C6A7].mkv
Format                                   : Matroska
Format version                           : Version 4
File size                                : 667 MiB
Duration                                 : 24 min 9 s
Overall bit rate                         : 3 860 kb/s
Encoded date                             : UTC 2023-06-07 03:48:31
Writing application                      : mkvmerge v76.0 ('Celebration') 64-bit
Writing library                          : libebml v1.4.4 + libmatroska v1.7.1 / Lavf60.5.100

Video
ID                                       : 1
Format                                   : AVC
Format/Info                              : Advanced Video Codec
Format profile                           : High@L4
Format settings                          : CABAC / 3 Ref Frames
Format settings, CABAC                   : Yes
Format settings, Reference frames        : 3 frames
Codec ID                                 : V_MPEG4/ISO/AVC
Duration                                 : 24 min 9 s
Bit rate                                 : 3 601 kb/s
Width                                    : 1 280 pixels
Height                                   : 720 pixels
Display aspect ratio                     : 16:9
Frame rate mode                          : Constant
Frame rate                               : 23.976 (24000/1001) FPS
Color space                              : YUV
Chroma subsampling                       : 4:2:0
Bit depth                                : 8 bits
Scan type                                : Progressive
Bits/(Pixel*Frame)                       : 0.163
Stream size                              : 622 MiB (93%)
Title                                    : [Zoku] Rip
Default                                  : Yes
Forced                                   : No
Color range                              : Limited
Matrix coefficients                      : BT.709

Audio
ID                                       : 2
Format                                   : AAC LC
Format/Info                              : Advanced Audio Codec Low Complexity
Codec ID                                 : A_AAC-2
Duration                                 : 24 min 9 s
Bit rate                                 : 256 kb/s
Channel(s)                               : 2 channels
Channel layout                           : L R
Sampling rate                            : 48.0 kHz
Frame rate                               : 46.875 FPS (1024 SPF)
Compression mode                         : Lossy
Stream size                              : 44.2 MiB (7%)
Title                                    : English Audio
Language                                 : English
Default                                  : Yes
Forced                                   : No

Text
ID                                       : 3
Format                                   : ASS
Codec ID                                 : S_TEXT/ASS
Codec ID/Info                            : Advanced Sub Station Alpha
Duration                                 : 23 min 37 s
Bit rate                                 : 113 b/s
Count of elements                        : 301
Compression mode                         : Lossless
Stream size                              : 19.7 KiB (0%)
Title                                    : English Subtitles
Language                                 : English
Default                                  : No
Forced                                   : No

Other Files in this Torrent
One Piece - 954 - Its Name Is Enma! Oden`s Great Swords! [8E72C6A7].mkv
beta
Anime DDL+NZB mirror
Current Time: 24/06/2024 07:02



About/FAQs

Discord