One Piece - 958 - A Legendary Battle! Garp and Roger! [88E2A399].mkv


File Size628.9 MB (659,427,380 bytes)
DownloadClickNUpload | DownloadGG | GoFile | KrakenFiles | MdiaLoad
MultiUp: Part1
  • BdUpload
  • DownAce
  • Fichier
  • FileCloud
  • Filerio
  • FilesCdn
  • IndiShare
  • Kbagi
  • Turbobit
  • UpToBox
  • Uppit
, Part2
  • BdUpload
  • DownAce
  • Fichier
  • FileCloud
  • Filerio
  • FilesCdn
  • IndiShare
  • Kbagi
  • Turbobit
  • UpToBox
  • Uppit
HashesCRC32: 38B22EC3, MD5: 8F0F08724F60E895EEBE172E0CC6AB78, SHA1: CB3500DA4F066FCA1B8046963CCFC1C7733A5CE0, SHA256: CEF3D915E60EAD2DCF4CA7F80BF06B594BDF1EC858B0EE320B90CDA3B9F41841, ED2K: 22FC04FA668E5DF1A04770CAFD0BF015
Screenshots
screenshotscreenshotscreenshotscreenshotscreenshot
SubtitlesAll Attachments | English Subtitles [eng, ASS]
Additional Info
General
Unique ID                                : 37599689135892671280332234939206955799 (0x1C496FCCEC9F1EA1B096A553EC277317)
Complete name                            : One Piece - 958 - A Legendary Battle! Garp and Roger! [88E2A399].mkv
Format                                   : Matroska
Format version                           : Version 4
File size                                : 629 MiB
Duration                                 : 24 min 9 s
Overall bit rate                         : 3 640 kb/s
Encoded date                             : UTC 2023-06-07 03:48:35
Writing application                      : mkvmerge v76.0 ('Celebration') 64-bit
Writing library                          : libebml v1.4.4 + libmatroska v1.7.1 / Lavf60.5.100

Video
ID                                       : 1
Format                                   : AVC
Format/Info                              : Advanced Video Codec
Format profile                           : High@L4
Format settings                          : CABAC / 3 Ref Frames
Format settings, CABAC                   : Yes
Format settings, Reference frames        : 3 frames
Codec ID                                 : V_MPEG4/ISO/AVC
Duration                                 : 24 min 9 s
Bit rate                                 : 3 382 kb/s
Width                                    : 1 280 pixels
Height                                   : 720 pixels
Display aspect ratio                     : 16:9
Frame rate mode                          : Constant
Frame rate                               : 23.976 (24000/1001) FPS
Color space                              : YUV
Chroma subsampling                       : 4:2:0
Bit depth                                : 8 bits
Scan type                                : Progressive
Bits/(Pixel*Frame)                       : 0.153
Stream size                              : 584 MiB (93%)
Title                                    : [Zoku] Rip
Default                                  : Yes
Forced                                   : No
Color range                              : Limited
Matrix coefficients                      : BT.709

Audio
ID                                       : 2
Format                                   : AAC LC
Format/Info                              : Advanced Audio Codec Low Complexity
Codec ID                                 : A_AAC-2
Duration                                 : 24 min 9 s
Bit rate                                 : 256 kb/s
Channel(s)                               : 2 channels
Channel layout                           : L R
Sampling rate                            : 48.0 kHz
Frame rate                               : 46.875 FPS (1024 SPF)
Compression mode                         : Lossy
Stream size                              : 44.2 MiB (7%)
Title                                    : English Audio
Language                                 : English
Default                                  : Yes
Forced                                   : No

Text
ID                                       : 3
Format                                   : ASS
Codec ID                                 : S_TEXT/ASS
Codec ID/Info                            : Advanced Sub Station Alpha
Duration                                 : 23 min 38 s
Bit rate                                 : 129 b/s
Count of elements                        : 313
Compression mode                         : Lossless
Stream size                              : 22.5 KiB (0%)
Title                                    : English Subtitles
Language                                 : English
Default                                  : No
Forced                                   : No

Other Files in this Torrent
One Piece - 958 - A Legendary Battle! Garp and Roger! [88E2A399].mkv
beta
Anime DDL+NZB mirror
Current Time: 14/06/2024 08:39



About/FAQs

Discord