One Piece - 961 - Tearfully Swearing Allegiance! Oden and Kin`emon! [A4AD07D8].mkv


File Size638.3 MB (669,342,974 bytes)
DownloadClickNUpload | DownloadGG | GoFile | KrakenFiles | MdiaLoad
MultiUp: Part1
  • BdUpload
  • DownAce
  • Fichier
  • FileCloud
  • Filerio
  • FilesCdn
  • IndiShare
  • Kbagi
  • Turbobit
  • UpToBox
  • Uppit
, Part2
  • BdUpload
  • DownAce
  • Fichier
  • FileCloud
  • Filerio
  • FilesCdn
  • IndiShare
  • Kbagi
  • Turbobit
  • UpToBox
  • Uppit
HashesCRC32: 8B5AF343, MD5: BCBB25DD9DA952A412E76C39F9C7DFC7, SHA1: 1A107238BFB1114052775F6C9C8ECCA10365C242, SHA256: C290AA2F951E52163DCAD55C46E03152FED038B796BE6A471A4303154FA49AFE, ED2K: EBF2747142E777871363F5916C4FA002
Screenshots
screenshotscreenshotscreenshotscreenshotscreenshot
SubtitlesAll Attachments | English Subtitles [eng, ASS]
Additional Info
General
Unique ID                                : 217745430546827879619765912975715717396 (0xA3D03E972EBBD44C766B6A47AF91D114)
Complete name                            : One Piece - 961 - Tearfully Swearing Allegiance! Oden and Kin`emon! [A4AD07D8].mkv
Format                                   : Matroska
Format version                           : Version 4
File size                                : 638 MiB
Duration                                 : 24 min 9 s
Overall bit rate                         : 3 695 kb/s
Encoded date                             : UTC 2023-06-07 03:48:38
Writing application                      : mkvmerge v76.0 ('Celebration') 64-bit
Writing library                          : libebml v1.4.4 + libmatroska v1.7.1 / Lavf60.5.100

Video
ID                                       : 1
Format                                   : AVC
Format/Info                              : Advanced Video Codec
Format profile                           : High@L4
Format settings                          : CABAC / 3 Ref Frames
Format settings, CABAC                   : Yes
Format settings, Reference frames        : 3 frames
Codec ID                                 : V_MPEG4/ISO/AVC
Duration                                 : 24 min 9 s
Bit rate                                 : 3 437 kb/s
Width                                    : 1 280 pixels
Height                                   : 720 pixels
Display aspect ratio                     : 16:9
Frame rate mode                          : Constant
Frame rate                               : 23.976 (24000/1001) FPS
Color space                              : YUV
Chroma subsampling                       : 4:2:0
Bit depth                                : 8 bits
Scan type                                : Progressive
Bits/(Pixel*Frame)                       : 0.156
Stream size                              : 594 MiB (93%)
Title                                    : [Zoku] Rip
Default                                  : Yes
Forced                                   : No
Color range                              : Limited
Matrix coefficients                      : BT.709

Audio
ID                                       : 2
Format                                   : AAC LC
Format/Info                              : Advanced Audio Codec Low Complexity
Codec ID                                 : A_AAC-2
Duration                                 : 24 min 9 s
Bit rate                                 : 256 kb/s
Channel(s)                               : 2 channels
Channel layout                           : L R
Sampling rate                            : 48.0 kHz
Frame rate                               : 46.875 FPS (1024 SPF)
Compression mode                         : Lossy
Stream size                              : 44.2 MiB (7%)
Title                                    : English Audio
Language                                 : English
Default                                  : Yes
Forced                                   : No

Text
ID                                       : 3
Format                                   : ASS
Codec ID                                 : S_TEXT/ASS
Codec ID/Info                            : Advanced Sub Station Alpha
Duration                                 : 23 min 38 s
Bit rate                                 : 115 b/s
Count of elements                        : 298
Compression mode                         : Lossless
Stream size                              : 19.9 KiB (0%)
Title                                    : English Subtitles
Language                                 : English
Default                                  : No
Forced                                   : No

Other Files in this Torrent
One Piece - 961 - Tearfully Swearing Allegiance! Oden and Kin`emon! [A4AD07D8].mkv
beta
Anime DDL+NZB mirror
Current Time: 24/06/2024 07:43



About/FAQs

Discord