One Piece - 962 - Changing Destiny! The Whitebeard Pirates Cast Ashore! [207B6650].mkv


File Size650.2 MB (681,774,460 bytes)
DownloadClickNUpload | DownloadGG | GoFile | KrakenFiles | MdiaLoad
MultiUp: Part1
  • BdUpload
  • DownAce
  • Fichier
  • FileCloud
  • Filerio
  • FilesCdn
  • IndiShare
  • Kbagi
  • Turbobit
  • UpToBox
  • Uppit
, Part2
  • BdUpload
  • DownAce
  • Fichier
  • FileCloud
  • Filerio
  • FilesCdn
  • IndiShare
  • Kbagi
  • Turbobit
  • UpToBox
  • Uppit
HashesCRC32: 0A022D4D, MD5: 76C2C807B7FCEE5ECCDEADE55ADAAA45, SHA1: 8755FD134588F242B17E3C077D046D2B8728282C, SHA256: E48C8C27DA1EA222241536AA5392A56533545A1D3A801AB67CF6FB7709370284, ED2K: 8DF5B78DE79F776730C1284B414BA662
Screenshots
screenshotscreenshotscreenshotscreenshotscreenshot
SubtitlesAll Attachments | English Subtitles [eng, ASS]
Additional Info
General
Unique ID                                : 3377096934232718892835684367621259041 (0x28A67BBE9B5927DA2D3A9C531997F21)
Complete name                            : One Piece - 962 - Changing Destiny! The Whitebeard Pirates Cast Ashore! [207B6650].mkv
Format                                   : Matroska
Format version                           : Version 4
File size                                : 650 MiB
Duration                                 : 24 min 9 s
Overall bit rate                         : 3 764 kb/s
Encoded date                             : UTC 2023-06-07 03:48:39
Writing application                      : mkvmerge v76.0 ('Celebration') 64-bit
Writing library                          : libebml v1.4.4 + libmatroska v1.7.1 / Lavf60.5.100

Video
ID                                       : 1
Format                                   : AVC
Format/Info                              : Advanced Video Codec
Format profile                           : High@L4
Format settings                          : CABAC / 3 Ref Frames
Format settings, CABAC                   : Yes
Format settings, Reference frames        : 3 frames
Codec ID                                 : V_MPEG4/ISO/AVC
Duration                                 : 24 min 9 s
Bit rate                                 : 3 505 kb/s
Width                                    : 1 280 pixels
Height                                   : 720 pixels
Display aspect ratio                     : 16:9
Frame rate mode                          : Constant
Frame rate                               : 23.976 (24000/1001) FPS
Color space                              : YUV
Chroma subsampling                       : 4:2:0
Bit depth                                : 8 bits
Scan type                                : Progressive
Bits/(Pixel*Frame)                       : 0.159
Stream size                              : 605 MiB (93%)
Title                                    : [Zoku] Rip
Default                                  : Yes
Forced                                   : No
Color range                              : Limited
Matrix coefficients                      : BT.709

Audio
ID                                       : 2
Format                                   : AAC LC
Format/Info                              : Advanced Audio Codec Low Complexity
Codec ID                                 : A_AAC-2
Duration                                 : 24 min 9 s
Bit rate                                 : 256 kb/s
Channel(s)                               : 2 channels
Channel layout                           : L R
Sampling rate                            : 48.0 kHz
Frame rate                               : 46.875 FPS (1024 SPF)
Compression mode                         : Lossy
Stream size                              : 44.2 MiB (7%)
Title                                    : English Audio
Language                                 : English
Default                                  : Yes
Forced                                   : No

Text
ID                                       : 3
Format                                   : ASS
Codec ID                                 : S_TEXT/ASS
Codec ID/Info                            : Advanced Sub Station Alpha
Duration                                 : 23 min 37 s
Bit rate                                 : 117 b/s
Count of elements                        : 321
Compression mode                         : Lossless
Stream size                              : 20.3 KiB (0%)
Title                                    : English Subtitles
Language                                 : English
Default                                  : No
Forced                                   : No

Other Files in this Torrent
One Piece - 962 - Changing Destiny! The Whitebeard Pirates Cast Ashore! [207B6650].mkv
beta
Anime DDL+NZB mirror
Current Time: 14/06/2024 08:42



About/FAQs

Discord