File Size625.9 MB (656,342,281 bytes)
DownloadClickNUpload | DownloadGG | KrakenFiles
MultiUp: Part1
  • BdUpload
  • DownAce
  • Fichier
  • FileCloud
  • Filerio
  • FilesCdn
  • IndiShare
  • Kbagi
  • Turbobit
  • UpToBox
  • Uppit
, Part2
  • BdUpload
  • DownAce
  • Fichier
  • FileCloud
  • Filerio
  • FilesCdn
  • IndiShare
  • Kbagi
  • Turbobit
  • UpToBox
  • Uppit

ZippyShare: Part1, Part2
HashesCRC32: 7EAA35EC, MD5: BEBA699E12C9DEC0556C1AC47C034AC0, SHA1: 9876C33DD1EC435811F4E8268E9CDAE61AD81B64, SHA256: 00D5A51AB7A8DB07E3F755DD523F18928015623020712B224F3F0CFFACC331D3, ED2K: 204267C32D2A7CF20A11C815056CF448
Screenshots
screenshotscreenshotscreenshotscreenshotscreenshot
SubtitlesAll Attachments | eng [ASS], Honorifics [enm, ASS]
Additional Info
General
Unique ID                                : 326448281772354866780816736593050719453 (0xF597A6F1118BE0ABA7FF429C47C9D4DD)
Complete name                            : [Okay-Subs] Paripi Koumei - 05v2 [7EAA35EC].mkv
Format                                   : Matroska
Format version                           : Version 4
File size                                : 626 MiB
Duration                                 : 23 min 40 s
Overall bit rate                         : 3 698 kb/s
Encoded date                             : UTC 2022-06-16 23:22:20
Writing application                      : mkvmerge v66.0.0 ('Josie') 64-bit
Writing library                          : libebml v1.4.2 + libmatroska v1.6.4
Attachments                              : AlegreyaSans-Black.ttf / arialbd.ttf / arialbi.ttf / Cronos-Pro.ttf / GandhiSans-BoldItalic_0.otf / GandhiSans-Bold_0.otf / NotoSans-Medium.ttf

Video
ID                                       : 1
Format                                   : HEVC
Format/Info                              : High Efficiency Video Coding
Format profile                           : Main@L5@Main
Codec ID                                 : V_MPEGH/ISO/HEVC
Duration                                 : 23 min 40 s
Bit rate                                 : 3 494 kb/s
Width                                    : 1 920 pixels
Height                                   : 1 080 pixels
Display aspect ratio                     : 16:9
Frame rate mode                          : Constant
Frame rate                               : 23.976 (24000/1001) FPS
Original frame rate                      : 23.976 (23976/1000) FPS
Color space                              : YUV
Chroma subsampling                       : 4:2:0
Bit depth                                : 8 bits
Bits/(Pixel*Frame)                       : 0.070
Stream size                              : 592 MiB (95%)
Default                                  : Yes
Forced                                   : No
Color range                              : Limited
Color primaries                          : BT.709
Transfer characteristics                 : BT.709
Matrix coefficients                      : BT.709

Audio
ID                                       : 2
Format                                   : AAC LC
Format/Info                              : Advanced Audio Codec Low Complexity
Codec ID                                 : A_AAC-2
Duration                                 : 23 min 40 s
Bit rate                                 : 159 kb/s
Channel(s)                               : 2 channels
Channel layout                           : L R
Sampling rate                            : 48.0 kHz
Frame rate                               : 46.875 FPS (1024 SPF)
Compression mode                         : Lossy
Stream size                              : 27.0 MiB (4%)
Language                                 : Japanese
Default                                  : Yes
Forced                                   : No

Text #1
ID                                       : 3
Format                                   : ASS
Codec ID                                 : S_TEXT/ASS
Codec ID/Info                            : Advanced Sub Station Alpha
Duration                                 : 23 min 35 s
Bit rate                                 : 11.0 kb/s
Count of elements                        : 10646
Compression mode                         : Lossless
Stream size                              : 1.85 MiB (0%)
Language                                 : English
Default                                  : Yes
Forced                                   : No

Text #2
ID                                       : 4
Format                                   : ASS
Codec ID                                 : S_TEXT/ASS
Codec ID/Info                            : Advanced Sub Station Alpha
Duration                                 : 23 min 35 s
Bit rate                                 : 11.0 kb/s
Count of elements                        : 10646
Compression mode                         : Lossless
Stream size                              : 1.85 MiB (0%)
Title                                    : Honorifics
Language                                 : enm
Default                                  : No
Forced                                   : No

Menu
00:00:00.033                             : en:Intro
00:01:13.980                             : en:OP
00:02:44.030                             : en:Episode
00:22:10.030                             : en:ED

Other Files in this Torrent
[Okay-Subs] Paripi Koumei - 05v2 [7EAA35EC].mkv
beta
Anime DDL+NZB mirror
Current Time: 24/06/2024 06:05



About/FAQs

Discord