File Size619.8 MB (649,887,184 bytes)
DownloadClickNUpload | DownloadGG | KrakenFiles
MultiUp: Part1
  • BdUpload
  • DownAce
  • Fichier
  • FileCloud
  • Filerio
  • FilesCdn
  • IndiShare
  • Kbagi
  • Turbobit
  • UpToBox
  • Uppit
, Part2
  • BdUpload
  • DownAce
  • Fichier
  • FileCloud
  • Filerio
  • FilesCdn
  • IndiShare
  • Kbagi
  • Turbobit
  • UpToBox
  • Uppit

ZippyShare: Part1, Part2
HashesCRC32: FEC99571, MD5: AB769F94BCA04CF9C93442CB45943CA9, SHA1: 990D921EC5342AF3CBECE4C1FDBEC652FC254BBC, SHA256: A5B625D7106E424A8141DB73A7EF310710A6A25647B0C5223DC252DD81896D9F, ED2K: D0C49052ABFF305C718CA45C759F2D6A
Screenshots
screenshotscreenshotscreenshotscreenshotscreenshot
SubtitlesAll Attachments | eng [ASS], Honorifics [enm, ASS]
Additional Info
General
Unique ID                                : 124898561595248915275508540397144572507 (0x5DF69685C5F60E1DE65B66F0F409025B)
Complete name                            : [Okay-Subs] Paripi Koumei - 01 [FEC99571].mkv
Format                                   : Matroska
Format version                           : Version 4
File size                                : 620 MiB
Duration                                 : 23 min 40 s
Overall bit rate                         : 3 661 kb/s
Encoded date                             : UTC 2022-04-13 00:43:08
Writing application                      : mkvmerge v19.0.0 ('Brave Captain') 64-bit
Writing library                          : libebml v1.3.5 + libmatroska v1.4.8
Attachments                              : Cronos-Pro.ttf / GandhiSans-BoldItalic_0.otf / GandhiSans-Bold_0.otf

Video
ID                                       : 1
Format                                   : HEVC
Format/Info                              : High Efficiency Video Coding
Format profile                           : Main@L5@Main
Codec ID                                 : V_MPEGH/ISO/HEVC
Duration                                 : 23 min 40 s
Bit rate                                 : 3 496 kb/s
Width                                    : 1 920 pixels
Height                                   : 1 080 pixels
Display aspect ratio                     : 16:9
Frame rate mode                          : Constant
Frame rate                               : 23.976 (24000/1001) FPS
Original frame rate                      : 23.976 (23976/1000) FPS
Color space                              : YUV
Chroma subsampling                       : 4:2:0
Bit depth                                : 8 bits
Bits/(Pixel*Frame)                       : 0.070
Stream size                              : 592 MiB (95%)
Default                                  : Yes
Forced                                   : No
Color range                              : Limited
Color primaries                          : BT.709
Transfer characteristics                 : BT.709
Matrix coefficients                      : BT.709

Audio
ID                                       : 2
Format                                   : AAC LC
Format/Info                              : Advanced Audio Codec Low Complexity
Codec ID                                 : A_AAC-2
Duration                                 : 23 min 40 s
Bit rate                                 : 159 kb/s
Channel(s)                               : 2 channels
Channel layout                           : L R
Sampling rate                            : 48.0 kHz
Frame rate                               : 46.875 FPS (1024 SPF)
Compression mode                         : Lossy
Stream size                              : 27.0 MiB (4%)
Language                                 : Japanese
Default                                  : Yes
Forced                                   : No

Text #1
ID                                       : 3
Format                                   : ASS
Codec ID                                 : S_TEXT/ASS
Codec ID/Info                            : Advanced Sub Station Alpha
Duration                                 : 23 min 38 s
Bit rate                                 : 200 b/s
Count of elements                        : 585
Compression mode                         : Lossless
Stream size                              : 34.8 KiB (0%)
Language                                 : English
Default                                  : Yes
Forced                                   : No

Text #2
ID                                       : 4
Format                                   : ASS
Codec ID                                 : S_TEXT/ASS
Codec ID/Info                            : Advanced Sub Station Alpha
Duration                                 : 23 min 38 s
Bit rate                                 : 201 b/s
Count of elements                        : 585
Compression mode                         : Lossless
Stream size                              : 34.8 KiB (0%)
Title                                    : Honorifics
Language                                 : enm
Default                                  : No
Forced                                   : No

Menu
00:00:00.033                             : en:Intro
00:22:09.980                             : en:Credits
00:23:34.980                             : en:Preview

Other Files in this Torrent
[Okay-Subs] Paripi Koumei - 01 [FEC99571].mkv
beta
Anime DDL+NZB mirror
Current Time: 24/06/2024 06:34



About/FAQs

Discord