File Size621.7 MB (651,895,882 bytes)
DownloadClickNUpload | DownloadGG | KrakenFiles
MultiUp: Part1
  • BdUpload
  • DownAce
  • Fichier
  • FileCloud
  • Filerio
  • FilesCdn
  • IndiShare
  • Kbagi
  • Turbobit
  • UpToBox
  • Uppit
, Part2
  • BdUpload
  • DownAce
  • Fichier
  • FileCloud
  • Filerio
  • FilesCdn
  • IndiShare
  • Kbagi
  • Turbobit
  • UpToBox
  • Uppit

ZippyShare: Part1, Part2
HashesCRC32: 6C69669B, MD5: 7BC9AF9F3F8F29D27850F09887DE80C3, SHA1: 28704C5CC3B432B77DB22BBF89ACA6A73D1E4884, SHA256: 12CE2F6CF9B4C6F7C5113A4D9E4306CE0183C5D87D82E98FC48FB044E171C641, ED2K: 7C7330C019180264C84F5817E475B287
Screenshots
screenshotscreenshotscreenshotscreenshotscreenshot
SubtitlesAll Attachments | eng [ASS], Honorifics [enm, ASS]
Additional Info
General
Unique ID                                : 280062743948663882910014087324029943229 (0xD2B21F5B5C41890CD16C5871985BFDBD)
Complete name                            : [Okay-Subs] Paripi Koumei - 03v2 [6C69669B].mkv
Format                                   : Matroska
Format version                           : Version 4
File size                                : 622 MiB
Duration                                 : 23 min 40 s
Overall bit rate                         : 3 673 kb/s
Encoded date                             : UTC 2022-06-16 23:13:13
Writing application                      : mkvmerge v66.0.0 ('Josie') 64-bit
Writing library                          : libebml v1.4.2 + libmatroska v1.6.4
Attachments                              : AlegreyaSans-Black.ttf / Cronos-Pro.ttf / GandhiSans-BoldItalic_0.otf / GandhiSans-Bold_0.otf / NotoSans-Medium.ttf

Video
ID                                       : 1
Format                                   : HEVC
Format/Info                              : High Efficiency Video Coding
Format profile                           : Main@L5@Main
Codec ID                                 : V_MPEGH/ISO/HEVC
Duration                                 : 23 min 40 s
Bit rate                                 : 3 479 kb/s
Width                                    : 1 920 pixels
Height                                   : 1 080 pixels
Display aspect ratio                     : 16:9
Frame rate mode                          : Constant
Frame rate                               : 23.976 (24000/1001) FPS
Original frame rate                      : 23.976 (23976/1000) FPS
Color space                              : YUV
Chroma subsampling                       : 4:2:0
Bit depth                                : 8 bits
Bits/(Pixel*Frame)                       : 0.070
Stream size                              : 589 MiB (95%)
Default                                  : Yes
Forced                                   : No
Color range                              : Limited
Color primaries                          : BT.709
Transfer characteristics                 : BT.709
Matrix coefficients                      : BT.709

Audio
ID                                       : 2
Format                                   : AAC LC
Format/Info                              : Advanced Audio Codec Low Complexity
Codec ID                                 : A_AAC-2
Duration                                 : 23 min 39 s
Bit rate                                 : 159 kb/s
Channel(s)                               : 2 channels
Channel layout                           : L R
Sampling rate                            : 48.0 kHz
Frame rate                               : 46.875 FPS (1024 SPF)
Compression mode                         : Lossy
Stream size                              : 27.0 MiB (4%)
Language                                 : Japanese
Default                                  : Yes
Forced                                   : No

Text #1
ID                                       : 3
Format                                   : ASS
Codec ID                                 : S_TEXT/ASS
Codec ID/Info                            : Advanced Sub Station Alpha
Duration                                 : 23 min 35 s
Bit rate                                 : 11.0 kb/s
Count of elements                        : 10789
Compression mode                         : Lossless
Stream size                              : 1.86 MiB (0%)
Language                                 : English
Default                                  : Yes
Forced                                   : No

Text #2
ID                                       : 4
Format                                   : ASS
Codec ID                                 : S_TEXT/ASS
Codec ID/Info                            : Advanced Sub Station Alpha
Duration                                 : 23 min 35 s
Bit rate                                 : 11.0 kb/s
Count of elements                        : 10789
Compression mode                         : Lossless
Stream size                              : 1.86 MiB (0%)
Title                                    : Honorifics
Language                                 : enm
Default                                  : No
Forced                                   : No

Menu
00:00:00.033                             : en:Intro
00:01:06.960                             : en:OP
00:02:37.010                             : en:Episode
00:22:10.160                             : en:ED

Other Files in this Torrent
[Okay-Subs] Paripi Koumei - 03v2 [6C69669B].mkv
beta
Anime DDL+NZB mirror
Current Time: 14/06/2024 10:15



About/FAQs

Discord