File Size621.4 MB (651,544,656 bytes)
DownloadClickNUpload | DownloadGG | KrakenFiles
MultiUp: Part1
  • BdUpload
  • DownAce
  • Fichier
  • FileCloud
  • Filerio
  • FilesCdn
  • IndiShare
  • Kbagi
  • Turbobit
  • UpToBox
  • Uppit
, Part2
  • BdUpload
  • DownAce
  • Fichier
  • FileCloud
  • Filerio
  • FilesCdn
  • IndiShare
  • Kbagi
  • Turbobit
  • UpToBox
  • Uppit

ZippyShare: Part1, Part2
HashesCRC32: 59501B24, MD5: C11E1FA77FFE06033D10681C36F88AB3, SHA1: 0F7BFA1B026BC96B23E001358F915BE7C8EE2593, SHA256: 421960D75C03D8756FAAB0475524BB7849E7057FF064E1D660059E5C3EA7B705, ED2K: 95AFD774C9F6799FFF0B0796723B5CC5
Screenshots
screenshotscreenshotscreenshotscreenshotscreenshot
SubtitlesAll Attachments | eng [ASS], Honorifics [enm, ASS]
Additional Info
General
Unique ID                                : 256730240714979059968890966334890764289 (0xC1247221688E9FDE2F864DD23DFEE801)
Complete name                            : [Okay-Subs] Paripi Koumei - 04v2 [59501B24].mkv
Format                                   : Matroska
Format version                           : Version 4
File size                                : 621 MiB
Duration                                 : 23 min 40 s
Overall bit rate                         : 3 671 kb/s
Encoded date                             : UTC 2022-06-16 23:12:04
Writing application                      : mkvmerge v66.0.0 ('Josie') 64-bit
Writing library                          : libebml v1.4.2 + libmatroska v1.6.4
Attachments                              : AlegreyaSans-Black.ttf / Cronos-Pro.ttf / GandhiSans-BoldItalic_0.otf / GandhiSans-Bold_0.otf

Video
ID                                       : 1
Format                                   : HEVC
Format/Info                              : High Efficiency Video Coding
Format profile                           : Main@L5@Main
Codec ID                                 : V_MPEGH/ISO/HEVC
Duration                                 : 23 min 40 s
Bit rate                                 : 3 480 kb/s
Width                                    : 1 920 pixels
Height                                   : 1 080 pixels
Display aspect ratio                     : 16:9
Frame rate mode                          : Constant
Frame rate                               : 23.976 (24000/1001) FPS
Original frame rate                      : 23.976 (23976/1000) FPS
Color space                              : YUV
Chroma subsampling                       : 4:2:0
Bit depth                                : 8 bits
Bits/(Pixel*Frame)                       : 0.070
Stream size                              : 589 MiB (95%)
Default                                  : Yes
Forced                                   : No
Color range                              : Limited
Color primaries                          : BT.709
Transfer characteristics                 : BT.709
Matrix coefficients                      : BT.709

Audio
ID                                       : 2
Format                                   : AAC LC
Format/Info                              : Advanced Audio Codec Low Complexity
Codec ID                                 : A_AAC-2
Duration                                 : 23 min 40 s
Bit rate                                 : 159 kb/s
Channel(s)                               : 2 channels
Channel layout                           : L R
Sampling rate                            : 48.0 kHz
Frame rate                               : 46.875 FPS (1024 SPF)
Compression mode                         : Lossy
Stream size                              : 27.0 MiB (4%)
Language                                 : Japanese
Default                                  : Yes
Forced                                   : No

Text #1
ID                                       : 3
Format                                   : ASS
Codec ID                                 : S_TEXT/ASS
Codec ID/Info                            : Advanced Sub Station Alpha
Duration                                 : 23 min 34 s
Bit rate                                 : 10.5 kb/s
Count of elements                        : 10111
Compression mode                         : Lossless
Stream size                              : 1.78 MiB (0%)
Language                                 : English
Default                                  : Yes
Forced                                   : No

Text #2
ID                                       : 4
Format                                   : ASS
Codec ID                                 : S_TEXT/ASS
Codec ID/Info                            : Advanced Sub Station Alpha
Duration                                 : 23 min 34 s
Bit rate                                 : 10.5 kb/s
Count of elements                        : 10111
Compression mode                         : Lossless
Stream size                              : 1.78 MiB (0%)
Title                                    : Honorifics
Language                                 : enm
Default                                  : No
Forced                                   : No

Menu
00:00:00.033                             : en:Intro
00:01:16.970                             : en:OP
00:02:47.030                             : en:Episode

Other Files in this Torrent
[Okay-Subs] Paripi Koumei - 04v2 [59501B24].mkv
beta
Anime DDL+NZB mirror
Current Time: 24/06/2024 06:31



About/FAQs

Discord