File Size622.9 MB (653,183,899 bytes)
DownloadClickNUpload | DownloadGG | KrakenFiles
MultiUp: Part1
  • BdUpload
  • DownAce
  • Fichier
  • FileCloud
  • Filerio
  • FilesCdn
  • IndiShare
  • Kbagi
  • Turbobit
  • UpToBox
  • Uppit
, Part2
  • BdUpload
  • DownAce
  • Fichier
  • FileCloud
  • Filerio
  • FilesCdn
  • IndiShare
  • Kbagi
  • Turbobit
  • UpToBox
  • Uppit

ZippyShare: Part1, Part2
HashesCRC32: 0F73144F, MD5: 36328E0323EE2A3E9F448E24DCB76238, SHA1: 5E9C5DB284DBCCD92B6EA3E34D1D78D2FC2AA6C2, SHA256: F34D5D566645B89D84AB2DBD0B10E7C31774E59D3DA09F0407EDC8295F5628FC, ED2K: 7F5AB43E7922F9243A8B1393E3DDB138
Screenshots
screenshotscreenshotscreenshotscreenshotscreenshot
SubtitlesAll Attachments | eng [ASS], Honorifics [enm, ASS]
Additional Info
General
Unique ID                                : 59494505613243061538477352552886176616 (0x2CC23998DC1DF065E9B283CD92B00B68)
Complete name                            : [Okay-Subs] Paripi Koumei - 02 [0F73144F].mkv
Format                                   : Matroska
Format version                           : Version 4
File size                                : 623 MiB
Duration                                 : 23 min 40 s
Overall bit rate                         : 3 680 kb/s
Encoded date                             : UTC 2022-04-16 01:10:26
Writing application                      : mkvmerge v19.0.0 ('Brave Captain') 64-bit
Writing library                          : libebml v1.3.5 + libmatroska v1.4.8
Attachments                              : AlegreyaSans-Black.ttf / Cronos-Pro.ttf / GandhiSans-BoldItalic_0.otf / GandhiSans-Bold_0.otf

Video
ID                                       : 1
Format                                   : HEVC
Format/Info                              : High Efficiency Video Coding
Format profile                           : Main@L5@Main
Codec ID                                 : V_MPEGH/ISO/HEVC
Duration                                 : 23 min 40 s
Bit rate                                 : 3 488 kb/s
Width                                    : 1 920 pixels
Height                                   : 1 080 pixels
Display aspect ratio                     : 16:9
Frame rate mode                          : Constant
Frame rate                               : 23.976 (24000/1001) FPS
Original frame rate                      : 23.976 (23976/1000) FPS
Color space                              : YUV
Chroma subsampling                       : 4:2:0
Bit depth                                : 8 bits
Bits/(Pixel*Frame)                       : 0.070
Stream size                              : 590 MiB (95%)
Default                                  : Yes
Forced                                   : No
Color range                              : Limited
Color primaries                          : BT.709
Transfer characteristics                 : BT.709
Matrix coefficients                      : BT.709

Audio
ID                                       : 2
Format                                   : AAC LC
Format/Info                              : Advanced Audio Codec Low Complexity
Codec ID                                 : A_AAC-2
Duration                                 : 23 min 40 s
Bit rate                                 : 159 kb/s
Channel(s)                               : 2 channels
Channel layout                           : L R
Sampling rate                            : 48.0 kHz
Frame rate                               : 46.875 FPS (1024 SPF)
Compression mode                         : Lossy
Stream size                              : 27.0 MiB (4%)
Language                                 : Japanese
Default                                  : Yes
Forced                                   : No

Text #1
ID                                       : 3
Format                                   : ASS
Codec ID                                 : S_TEXT/ASS
Codec ID/Info                            : Advanced Sub Station Alpha
Duration                                 : 23 min 37 s
Bit rate                                 : 10.6 kb/s
Count of elements                        : 10258
Compression mode                         : Lossless
Stream size                              : 1.78 MiB (0%)
Language                                 : English
Default                                  : Yes
Forced                                   : No

Text #2
ID                                       : 4
Format                                   : ASS
Codec ID                                 : S_TEXT/ASS
Codec ID/Info                            : Advanced Sub Station Alpha
Duration                                 : 23 min 37 s
Bit rate                                 : 10.6 kb/s
Count of elements                        : 10258
Compression mode                         : Lossless
Stream size                              : 1.78 MiB (0%)
Title                                    : Honorifics
Language                                 : enm
Default                                  : No
Forced                                   : No

Menu
00:00:00.033                             : en:Intro
00:00:56.030                             : en:OP
00:02:26.000                             : en:Episode
00:21:27.080                             : en:ED
00:22:52.930                             : en:Outro

Other Files in this Torrent
[Okay-Subs] Paripi Koumei - 02 [0F73144F].mkv
beta
Anime DDL+NZB mirror
Current Time: 24/06/2024 07:08



About/FAQs

Discord