File Size668.4 MB (700,853,333 bytes)
DownloadJheberg | MultiUp | UsersFiles
Go4Up: Part1, Part2
Sendspace: Part1, Part2, Part3
ShareBeast: Part1, Part2, Part3, Part4
SolidFiles: Part1, Part2
TusFiles: Part1, Part2
HashesCRC32: 2C4A7140, MD5: DDA550EF314D45469F5759345A933200, SHA1: 06F7AA0DD2257F8AF69D2E3A1F29CE1992203155, ED2K: 092923FA6241FF18FD7E56182D0E03E4
Screenshots
screenshotscreenshotscreenshotscreenshotscreenshot
SubtitlesAll Attachments | Hiryuu [eng, ASS]
Additional Info
General
Unique ID                                : 192332617939394259670344011347113524491 (0x90B1EA31758B9547A347B18CB4FFBD0B)
Complete name                            : Madan no Ou to Vanadis 03.BD.mkv
Format                                   : Matroska
Format version                           : Version 4 / Version 2
File size                                : 668 MiB
Duration                                 : 24mn 12s
Overall bit rate mode                    : Variable
Overall bit rate                         : 3 861 Kbps
Encoded date                             : UTC 2015-02-06 19:58:24
Writing application                      : mkvmerge v7.4.0 ('Circles') 32bit built on Dec 12 2014 12:10:09
Writing library                          : libebml v1.3.0 + libmatroska v1.4.1
DURATION                                 : 00:23:34.010000000
NUMBER_OF_FRAMES                         : 397
NUMBER_OF_BYTES                          : 38839
_STATISTICS_WRITING_APP                  : mkvmerge v7.4.0 ('Circles') 32bit built on Dec 12 2014 12:10:09
_STATISTICS_WRITING_DATE_UTC             : 2015-02-06 19:58:24
_STATISTICS_TAGS                         : BPS DURATION NUMBER_OF_FRAMES NUMBER_OF_BYTES

Video
ID                                       : 1
Format                                   : AVC
Format/Info                              : Advanced Video Codec
Format profile                           : High 10@L4.1
Format settings, CABAC                   : Yes
Format settings, ReFrames                : 9 frames
Codec ID                                 : V_MPEG4/ISO/AVC
Duration                                 : 24mn 12s
Bit rate                                 : 3 528 Kbps
Width                                    : 1 280 pixels
Height                                   : 720 pixels
Display aspect ratio                     : 16:9
Frame rate mode                          : Constant
Frame rate                               : 23.976 fps
Color space                              : YUV
Chroma subsampling                       : 4:2:0
Bit depth                                : 10 bits
Scan type                                : Progressive
Bits/(Pixel*Frame)                       : 0.160
Stream size                              : 611 MiB (91%)
Writing library                          : x264 core 132 r2309 3b1f1f7
Encoding settings                        : cabac=1 / ref=9 / deblock=1:-2:-2 / analyse=0x3:0x133 / me=umh / subme=9 / psy=1 / psy_rd=0.90:0.00 / mixed_ref=1 / me_range=24 / chroma_me=1 / trellis=2 / 8x8dct=1 / cqm=0 / deadzone=21,11 / fast_pskip=1 / chroma_qp_offset=-2 / threads=12 / lookahead_threads=2 / sliced_threads=0 / nr=0 / decimate=0 / interlaced=0 / bluray_compat=0 / constrained_intra=0 / bframes=8 / b_pyramid=2 / b_adapt=2 / b_bias=0 / direct=1 / weightb=1 / open_gop=0 / weightp=2 / keyint=250 / keyint_min=23 / scenecut=40 / intra_refresh=0 / rc=crf / mbtree=0 / crf=15.6 / qcomp=0.70 / qpmin=9 / qpmax=40 / qpstep=4 / ip_ratio=1.40 / pb_ratio=1.30 / aq=1:0.90
Default                                  : No
Forced                                   : No
DURATION                                 : 00:24:12.118000000
NUMBER_OF_FRAMES                         : 34816
NUMBER_OF_BYTES                          : 657167203
_STATISTICS_WRITING_APP                  : mkvmerge v7.4.0 ('Circles') 32bit built on Dec 12 2014 12:10:09
_STATISTICS_WRITING_DATE_UTC             : 2015-02-06 19:58:24
_STATISTICS_TAGS                         : BPS DURATION NUMBER_OF_FRAMES NUMBER_OF_BYTES

Audio
ID                                       : 2
Format                                   : Vorbis
Format settings, Floor                   : 1
Codec ID                                 : A_VORBIS
Duration                                 : 24mn 12s
Bit rate mode                            : Variable
Bit rate                                 : 256 Kbps
Channel(s)                               : 2 channels
Sampling rate                            : 48.0 KHz
Compression mode                         : Lossy
Stream size                              : 44.3 MiB (7%)
Writing library                          : libVorbis (Schaufenugget) (20101101 (Schaufenugget))
Language                                 : Japanese
Default                                  : Yes
Forced                                   : No

Text
ID                                       : 3
Format                                   : ASS
Codec ID                                 : S_TEXT/ASS
Codec ID/Info                            : Advanced Sub Station Alpha
Compression mode                         : Lossless
Title                                    : Hiryuu
Language                                 : English
Default                                  : Yes
Forced                                   : No

Other Files in this Torrent
Madan no Ou to Vanadis 03.BD.mkv
beta
Anime DDL+NZB mirror
Current Time: 09/08/2022 02:27



About/FAQs

Discord