File Size600.4 MB (629,557,798 bytes)
DownloadJheberg | MultiUp
  • BayFiles
  • BillionUploads
  • DepositFiles
  • Fichier
  • Free
  • HugeFiles
  • Ryushare
  • Turbobit
  • UpToBox
  • UploadHero
  • Uploaded
| UsersFiles
Go4Up: Part1, Part2
Sendspace: Part1, Part2, Part3
ShareBeast: Part1, Part2, Part3, Part4
SolidFiles: Part1, Part2
TusFiles: Part1, Part2
HashesCRC32: 598BC28A, MD5: D5628C75E2C730F514CBD83EC3613AE6, SHA1: 4F17221EC233831BAF7C0456BA13F4C75197A6AC, ED2K: 826910FF4B50EE8F74C219CC50E1124C
Screenshots
screenshotscreenshotscreenshotscreenshotscreenshot
SubtitlesAll Attachments | Hiryuu [eng, ASS]
Additional Info
General
Unique ID                                : 191595421303538046695499867631239842907 (0x9023EF97C578027483BD1923F6004C5B)
Complete name                            : Madan no Ou to Vanadis 02.BD.mkv
Format                                   : Matroska
Format version                           : Version 4 / Version 2
File size                                : 600 MiB
Duration                                 : 24mn 11s
Overall bit rate mode                    : Variable
Overall bit rate                         : 3 470 Kbps
Encoded date                             : UTC 2015-02-06 19:54:14
Writing application                      : mkvmerge v7.4.0 ('Circles') 32bit built on Dec 12 2014 12:10:09
Writing library                          : libebml v1.3.0 + libmatroska v1.4.1
DURATION                                 : 00:23:25.910000000
NUMBER_OF_FRAMES                         : 397
NUMBER_OF_BYTES                          : 33857
_STATISTICS_WRITING_APP                  : mkvmerge v7.4.0 ('Circles') 32bit built on Dec 12 2014 12:10:09
_STATISTICS_WRITING_DATE_UTC             : 2015-02-06 19:54:14
_STATISTICS_TAGS                         : BPS DURATION NUMBER_OF_FRAMES NUMBER_OF_BYTES

Video
ID                                       : 1
Format                                   : AVC
Format/Info                              : Advanced Video Codec
Format profile                           : High 10@L4.1
Format settings, CABAC                   : Yes
Format settings, ReFrames                : 9 frames
Codec ID                                 : V_MPEG4/ISO/AVC
Duration                                 : 24mn 11s
Bit rate                                 : 3 144 Kbps
Width                                    : 1 280 pixels
Height                                   : 720 pixels
Display aspect ratio                     : 16:9
Frame rate mode                          : Constant
Frame rate                               : 23.976 fps
Color space                              : YUV
Chroma subsampling                       : 4:2:0
Bit depth                                : 10 bits
Scan type                                : Progressive
Bits/(Pixel*Frame)                       : 0.142
Stream size                              : 544 MiB (91%)
Writing library                          : x264 core 132 r2309 3b1f1f7
Encoding settings                        : cabac=1 / ref=9 / deblock=1:-2:-2 / analyse=0x3:0x133 / me=umh / subme=9 / psy=1 / psy_rd=0.90:0.00 / mixed_ref=1 / me_range=24 / chroma_me=1 / trellis=2 / 8x8dct=1 / cqm=0 / deadzone=21,11 / fast_pskip=1 / chroma_qp_offset=-2 / threads=12 / lookahead_threads=2 / sliced_threads=0 / nr=0 / decimate=0 / interlaced=0 / bluray_compat=0 / constrained_intra=0 / bframes=8 / b_pyramid=2 / b_adapt=2 / b_bias=0 / direct=1 / weightb=1 / open_gop=0 / weightp=2 / keyint=250 / keyint_min=23 / scenecut=40 / intra_refresh=0 / rc=crf / mbtree=0 / crf=15.6 / qcomp=0.70 / qpmin=9 / qpmax=40 / qpstep=4 / ip_ratio=1.40 / pb_ratio=1.30 / aq=1:0.90
Default                                  : No
Forced                                   : No
DURATION                                 : 00:24:11.617000000
NUMBER_OF_FRAMES                         : 34804
NUMBER_OF_BYTES                          : 587775950
_STATISTICS_WRITING_APP                  : mkvmerge v7.4.0 ('Circles') 32bit built on Dec 12 2014 12:10:09
_STATISTICS_WRITING_DATE_UTC             : 2015-02-06 19:54:14
_STATISTICS_TAGS                         : BPS DURATION NUMBER_OF_FRAMES NUMBER_OF_BYTES

Audio
ID                                       : 2
Format                                   : Vorbis
Format settings, Floor                   : 1
Codec ID                                 : A_VORBIS
Duration                                 : 24mn 11s
Bit rate mode                            : Variable
Bit rate                                 : 256 Kbps
Channel(s)                               : 2 channels
Sampling rate                            : 48.0 KHz
Compression mode                         : Lossy
Stream size                              : 44.3 MiB (7%)
Writing library                          : libVorbis (Schaufenugget) (20101101 (Schaufenugget))
Language                                 : Japanese
Default                                  : Yes
Forced                                   : No

Text
ID                                       : 3
Format                                   : ASS
Codec ID                                 : S_TEXT/ASS
Codec ID/Info                            : Advanced Sub Station Alpha
Compression mode                         : Lossless
Title                                    : Hiryuu
Language                                 : English
Default                                  : Yes
Forced                                   : No

Other Files in this Torrent
Madan no Ou to Vanadis 02.BD.mkv
beta
Anime DDL+NZB mirror
Current Time: 09/08/2022 02:33



About/FAQs

Discord