File Size260.8 MB (273,448,463 bytes)
DownloadAnonFiles | ClickNUpload | DownloadGG | DropAPK | MultiUp
  • BdUpload
  • DownAce
  • Fichier
  • FileCloud
  • Filerio
  • FilesCdn
  • IndiShare
  • Kbagi
  • Turbobit
  • UpToBox
  • Uppit
| SolidFiles | ZippyShare
HashesCRC32: 008F4C51, MD5: 95817A6A2F699EBA545E40B349A6E900, SHA1: 6F35581983C5371472AB156A7809CA25DBAEC061, SHA256: 289B2B2AEEE476E65343193F5B7F9C526CC05BA065ADB7B758336AA09C517A20, ED2K: CB09D40230F6C1604A13312B8895BB26
Screenshots
screenshotscreenshotscreenshotscreenshotscreenshot
SubtitlesAll Attachments | jpn [ASS]
Additional Info
General
Unique ID                                : 274614641701824794890176542975178734245 (0xCE98DB2D7001A6F2A63E6D7AB9067AA5)
Complete name                            :   How Heavy Are the Dumbbells You Lift 12 (10bit_BD1080p_x265).mkv
Format                                   : Matroska
Format version                           : Version 4
File size                                : 261 MiB
Duration                                 : 23 min 40 s
Overall bit rate                         : 1 540 kb/s
Encoded date                             : UTC 2021-09-05 02:23:08
Writing application                      : mkvmerge v52.0.0 ('Secret For The Mad') 64-bit
Writing library                          : libebml v1.4.1 + libmatroska v1.6.2
Attachments                              : LuckiestGuy-Regular.ttf / BalooBhai-Regular.ttf / a_citynovalt_i_0.ttf / akzentroundedmedium-regular.ttf / arbli__.ttf / arial.ttf / arialbd.ttf / arialn.ttf / ariblk.ttf / arlrdbd.ttf / aurulentsans-bold.otf / impact.ttf / OpenSans-Semibold.ttf / secession.ttf / tt0818m.ttf

Video
ID                                       : 1
Format                                   : HEVC
Format/Info                              : High Efficiency Video Coding
Format profile                           : Main 10@L6.2@High
Codec ID                                 : V_MPEGH/ISO/HEVC
Duration                                 : 23 min 40 s
Bit rate                                 : 1 374 kb/s
Width                                    : 1 920 pixels
Height                                   : 1 080 pixels
Display aspect ratio                     : 16:9
Frame rate mode                          : Constant
Frame rate                               : 23.976 (24000/1001) FPS
Color space                              : YUV
Chroma subsampling                       : 4:2:0
Bit depth                                : 10 bits
Bits/(Pixel*Frame)                       : 0.028
Stream size                              : 233 MiB (89%)
Writing library                          : x265 2.5+14-2718cb5dd67f:[Windows][GCC 7.1.0][64 bit] 10bit
Encoding settings                        : cpuid=1050111 / frame-threads=3 / numa-pools=8 / wpp / pmode / no-pme / no-psnr / no-ssim / log-level=2 / input-csp=1 / input-res=1920x1080 / interlace=0 / total-frames=34068 / level-idc=62 / high-tier=1 / uhd-bd=0 / ref=3 / no-allow-non-conformance / no-repeat-headers / annexb / no-aud / no-hrd / info / hash=0 / no-temporal-layers / open-gop / min-keyint=23 / keyint=250 / bframes=4 / b-adapt=2 / b-pyramid / bframe-bias=0 / rc-lookahead=20 / lookahead-slices=6 / scenecut=40 / no-intra-refresh / ctu=64 / min-cu-size=8 / no-rect / no-amp / max-tu-size=32 / tu-inter-depth=1 / tu-intra-depth=1 / limit-tu=0 / rdoq-level=0 / dynamic-rd=0.00 / no-ssim-rd / signhide / no-tskip / nr-intra=0 / nr-inter=0 / no-constrained-intra / strong-intra-smoothing / max-merge=2 / limit-refs=0 / no-limit-modes / me=1 / subme=2 / merange=57 / temporal-mvp / weightp / no-weightb / no-analyze-src-pics / deblock=0:0 / sao / no-sao-non-deblock / rd=3 / no-early-skip / rskip / no-fast-intra / no-tskip-fast / no-cu-lossless / no-b-intra / no-splitrd-skip / rdpenalty=0 / psy-rd=2.00 / psy-rdoq=0.00 / no-rd-refine / analysis-reuse-mode=0 / no-lossless / cbqpoffs=0 / crqpoffs=0 / rc=crf / crf=22.0 / qcomp=0.60 / qpstep=4 / stats-write=0 / stats-read=0 / vbv-maxrate=800000 / vbv-bufsize=800000 / vbv-init=0.9 / crf-max=0.0 / crf-min=0.0 / ipratio=1.40 / pbratio=1.30 / aq-mode=2 / aq-strength=1.00 / cutree / zone-count=0 / no-strict-cbr / qg-size=32 / no-rc-grain / qpmax=69 / qpmin=0 / no-const-vbv / sar=0 / overscan=0 / videoformat=5 / range=0 / colorprim=2 / transfer=2 / colormatrix=2 / chromaloc=0 / display-window=0 / max-cll=0,0 / min-luma=0 / max-luma=1023 / log2-max-poc-lsb=8 / vui-timing-info / vui-hrd-info / slices=1 / opt-qp-pps / opt-ref-list-length-pps / no-multi-pass-opt-rps / scenecut-bias=0.05 / no-opt-cu-delta-qp / no-aq-motion / no-hdr / no-hdr-opt / no-dhdr10-opt / analysis-reuse-level=5 / scale-factor=0 / refine-intra=0 / refine-inter=0 / refine-mv=0 / no-limit-sao / ctu-info=0
Default                                  : Yes
Forced                                   : No

Audio
ID                                       : 2
Format                                   : AAC LC
Format/Info                              : Advanced Audio Codec Low Complexity
Codec ID                                 : A_AAC-2
Duration                                 : 23 min 40 s
Bit rate                                 : 144 kb/s
Channel(s)                               : 2 channels
Channel layout                           : L R
Sampling rate                            : 48.0 kHz
Frame rate                               : 46.875 FPS (1024 SPF)
Compression mode                         : Lossy
Delay relative to video                  : 9 ms
Stream size                              : 24.5 MiB (9%)
Language                                 : Japanese
Default                                  : No
Forced                                   : No

Text
ID                                       : 3
Format                                   : ASS
Codec ID                                 : S_TEXT/ASS
Codec ID/Info                            : Advanced Sub Station Alpha
Duration                                 : 23 min 23 s
Bit rate                                 : 161 b/s
Count of elements                        : 472
Compression mode                         : Lossless
Stream size                              : 27.6 KiB (0%)
Language                                 : Japanese
Default                                  : Yes
Forced                                   : No

Menu
00:00:00.000                             : en:Intro
00:02:04.960                             : en:OP
00:03:34.966                             : en:Part A
00:18:11.467                             : en:ED
00:19:41.515                             : en:Part B
00:22:07.000                             : en:Workout Review

Other Files in this Torrent
How Heavy Are the Dumbbells You Lift 12 (10bit_BD1080p_x265).mkv
beta
Anime DDL+NZB mirror
Current Time: 02/12/2021 23:56



About/FAQs

Discord