File Size107.7 MB (112,898,676 bytes)
DownloadAnonFiles | ClickNUpload | DownloadGG | DropAPK | MultiUp
  • BdUpload
  • DownAce
  • Fichier
  • FileCloud
  • Filerio
  • FilesCdn
  • IndiShare
  • Kbagi
  • Turbobit
  • UpToBox
  • Uppit
| SolidFiles | ZippyShare
HashesCRC32: 43554030, MD5: 40296FAB10CC9328F34B5A4B8860F977, SHA1: E30A56395D436C9A3EA42DD1A13BA7686D7A37FD, SHA256: 9521A9A2BF2FB4C42380210C223DD88A0B9EEF1CFB6ABAD82E81254301EFDA79, ED2K: ACCA242EAE304C5596750A6B7502D0B2
Screenshots
screenshotscreenshot
Additional Info
General
Unique ID                                : 270368113372785627105135827135570978815 (0xCB67012A87CB3F8EB9707C31617527FF)
Complete name                            : NCED.mkv
Format                                   : Matroska
Format version                           : Version 2
File size                                : 108 MiB
Duration                                 : 1 min 31 s
Overall bit rate mode                    : Variable
Overall bit rate                         : 9 920 kb/s
Encoded date                             : UTC 2019-12-29 15:57:48
Writing application                      : mkvmerge v41.0.0 ('Smarra') 64-bit
Writing library                          : libebml v1.3.9 + libmatroska v1.5.2

Video
ID                                       : 1
Format                                   : AVC
Format/Info                              : Advanced Video Codec
Format profile                           : High@L5
Format settings                          : CABAC / 10 Ref Frames
Format settings, CABAC                   : Yes
Format settings, ReFrames                : 10 frames
Codec ID                                 : V_MPEG4/ISO/AVC
Duration                                 : 1 min 31 s
Bit rate                                 : 8 930 kb/s
Width                                    : 1 920 pixels
Height                                   : 1 080 pixels
Display aspect ratio                     : 16:9
Frame rate mode                          : Constant
Frame rate                               : 23.976 (24000/1001) FPS
Color space                              : YUV
Chroma subsampling                       : 4:2:0
Bit depth                                : 8 bits
Scan type                                : Progressive
Bits/(Pixel*Frame)                       : 0.180
Stream size                              : 96.9 MiB (90%)
Writing library                          : x264 core 155 r2917+44 ba48085 Yuuki [all-bit@all X86_64][GCC 8.2.1]
Encoding settings                        : cabac=1 / ref=10 / deblock=1:0:0 / analyse=0x3:0x113 / me=umh / subme=9 / psy=1 / psy_rd=0.80:0.25 / mixed_ref=1 / me_range=32 / chroma_me=1 / trellis=1 / 8x8dct=1 / cqm=0 / deadzone=21,11 / fast_pskip=0 / chroma_qp_offset=-4 / threads=34 / lookahead_threads=2 / sliced_threads=0 / nr=0 / decimate=1 / interlaced=0 / bluray_compat=0 / constrained_intra=0 / fgo=0 / bframes=8 / b_pyramid=2 / b_adapt=1 / b_bias=0 / direct=1 / weightb=1 / open_gop=0 / weightp=2 / keyint=250 / keyint_min=23 / scenecut=40 / intra_refresh=0 / rc_lookahead=70 / rc=crf / mbtree=1 / crf=17.0000 / qcomp=0.60 / qpmin=0:0:0 / qpmax=69:69:69 / qpstep=4 / ip_ratio=1.40 / aq=3:0.80
Default                                  : Yes
Forced                                   : No

Audio
ID                                       : 2
Format                                   : FLAC
Format/Info                              : Free Lossless Audio Codec
Codec ID                                 : A_FLAC
Duration                                 : 1 min 31 s
Bit rate mode                            : Variable
Bit rate                                 : 987 kb/s
Channel(s)                               : 2 channels
Channel layout                           : L R
Sampling rate                            : 48.0 kHz
Frame rate                               : 11.719 FPS (4096 SPF)
Bit depth                                : 16 bits
Compression mode                         : Lossless
Stream size                              : 10.7 MiB (10%)
Writing library                          : libFLAC 1.2.1 (UTC 2007-09-17)
Language                                 : Japanese
Default                                  : Yes
Forced                                   : No

Other Files in this Torrent
Extra/NC/NCED.mkv
beta
Anime DDL+NZB mirror
Current Time: 02/12/2021 23:34



About/FAQs

Discord