File Size119.3 MB (125,140,355 bytes)
DownloadAnonFiles | ClickNUpload | DownloadGG | DropAPK | MultiUp
  • BdUpload
  • DownAce
  • Fichier
  • FileCloud
  • Filerio
  • FilesCdn
  • IndiShare
  • Kbagi
  • Turbobit
  • UpToBox
  • Uppit
| SolidFiles | ZippyShare
HashesCRC32: 6A305FE9, MD5: 8248D1A35B2C012EB231B838F22DAC8B, SHA1: A1FE1139734374D9541F4711DFC229E9BD85ECF1, SHA256: 8CC831518B02BCB98AE2688F5AEF559C310EF74035D07620C598FF05229C6785, ED2K: 1B8D56BFF9C01A0616F8C3EC2BFA2DBF
Screenshots
screenshotscreenshot
Additional Info
General
Unique ID                                : 28380604628217582751491792581027549389 (0x1559E7D752E24FF6BA7C63BCF66DD0CD)
Complete name                            : NCOP.mkv
Format                                   : Matroska
Format version                           : Version 2
File size                                : 119 MiB
Duration                                 : 1 min 31 s
Overall bit rate mode                    : Variable
Overall bit rate                         : 11.0 Mb/s
Encoded date                             : UTC 2019-12-29 15:57:50
Writing application                      : mkvmerge v41.0.0 ('Smarra') 64-bit
Writing library                          : libebml v1.3.9 + libmatroska v1.5.2

Video
ID                                       : 1
Format                                   : AVC
Format/Info                              : Advanced Video Codec
Format profile                           : High@L5
Format settings                          : CABAC / 10 Ref Frames
Format settings, CABAC                   : Yes
Format settings, ReFrames                : 10 frames
Codec ID                                 : V_MPEG4/ISO/AVC
Duration                                 : 1 min 31 s
Bit rate                                 : 10.0 Mb/s
Width                                    : 1 920 pixels
Height                                   : 1 080 pixels
Display aspect ratio                     : 16:9
Frame rate mode                          : Constant
Frame rate                               : 23.976 (24000/1001) FPS
Color space                              : YUV
Chroma subsampling                       : 4:2:0
Bit depth                                : 8 bits
Scan type                                : Progressive
Bits/(Pixel*Frame)                       : 0.202
Stream size                              : 109 MiB (91%)
Writing library                          : x264 core 155 r2917+44 ba48085 Yuuki [all-bit@all X86_64][GCC 8.2.1]
Encoding settings                        : cabac=1 / ref=10 / deblock=1:0:0 / analyse=0x3:0x113 / me=umh / subme=9 / psy=1 / psy_rd=0.80:0.25 / mixed_ref=1 / me_range=32 / chroma_me=1 / trellis=1 / 8x8dct=1 / cqm=0 / deadzone=21,11 / fast_pskip=0 / chroma_qp_offset=-4 / threads=34 / lookahead_threads=2 / sliced_threads=0 / nr=0 / decimate=1 / interlaced=0 / bluray_compat=0 / constrained_intra=0 / fgo=0 / bframes=8 / b_pyramid=2 / b_adapt=1 / b_bias=0 / direct=1 / weightb=1 / open_gop=0 / weightp=2 / keyint=250 / keyint_min=23 / scenecut=40 / intra_refresh=0 / rc_lookahead=70 / rc=crf / mbtree=1 / crf=17.0000 / qcomp=0.60 / qpmin=0:0:0 / qpmax=69:69:69 / qpstep=4 / ip_ratio=1.40 / aq=3:0.80
Default                                  : Yes
Forced                                   : No

Audio
ID                                       : 2
Format                                   : FLAC
Format/Info                              : Free Lossless Audio Codec
Codec ID                                 : A_FLAC
Duration                                 : 1 min 31 s
Bit rate mode                            : Variable
Bit rate                                 : 977 kb/s
Channel(s)                               : 2 channels
Channel layout                           : L R
Sampling rate                            : 48.0 kHz
Frame rate                               : 11.724 FPS (4094 SPF)
Bit depth                                : 16 bits
Compression mode                         : Lossless
Stream size                              : 10.6 MiB (9%)
Writing library                          : libFLAC 1.2.1 (UTC 2007-09-17)
Language                                 : Japanese
Default                                  : Yes
Forced                                   : No

Other Files in this Torrent
Extra/NC/NCOP.mkv
beta
Anime DDL+NZB mirror
Current Time: 21/05/2022 09:27



About/FAQs

Discord