File Size919.8 MB (964,503,177 bytes)
DownloadClickNUpload | DailyUploads | DownloadGG | GoFile | KrakenFiles | MdiaLoad | Uppit
MultiUp: Part1
  • BdUpload
  • DownAce
  • Fichier
  • FileCloud
  • Filerio
  • FilesCdn
  • IndiShare
  • Kbagi
  • Turbobit
  • UpToBox
  • Uppit
, Part2
  • BdUpload
  • DownAce
  • Fichier
  • FileCloud
  • Filerio
  • FilesCdn
  • IndiShare
  • Kbagi
  • Turbobit
  • UpToBox
  • Uppit
HashesCRC32: 41AA5E5D, MD5: 4E2129EB2B8C9C0E3B030B2E54BF5E85, SHA1: 6582246C2E1349E84B6F4A1C3A0C11D8ACA1ED39, SHA256: B7BEAE27B0B8737F3ECA13A4F792652F38D453FE87155A7D0C3C0E2C7AEF6022, ED2K: EFCD85D038EBD950CFF5368979C3A033
Screenshots
screenshotscreenshotscreenshotscreenshotscreenshot
SubtitlesAll Attachments | FULL SSA [eng, ASS], FULL PGS [eng, PGS], SIGNS PGS [eng, PGS]
Additional Info
General
Unique ID                                : 215003559615884870019789285332908116472 (0xA1C02DEAA1150CE4EA20198D229609F8)
Complete name                            : Getter Robo Armageddon - 12.mkv
Format                                   : Matroska
Format version                           : Version 4
File size                                : 920 MiB
Duration                                 : 24 min 28 s
Overall bit rate                         : 5 253 kb/s
Frame rate                               : 23.976 FPS
Movie name                               : Getter Robo Armageddon - 12
Encoded date                             : 2023-10-28 03:02:16 UTC
Writing application                      : mkvmerge v79.0 ('Funeral Pyres') 64-bit
Writing library                          : libebml v1.4.4 + libmatroska v1.7.1 / Lavf60.4.101
Attachments                              : ARCENA.ttf / FaxfontTone.otf / Franklin Gothic Demi Cond Regular.ttf / Wolf Sans Regular (!rd-rd).ttf

Video
ID                                       : 1
Format                                   : AVC
Format/Info                              : Advanced Video Codec
Format profile                           : High 4:4:4 Predictive@L4
Format settings                          : CABAC / 16 Ref Frames
Format settings, CABAC                   : Yes
Format settings, Reference frames        : 16 frames
Codec ID                                 : V_MPEG4/ISO/AVC
Duration                                 : 24 min 28 s
Bit rate                                 : 4 540 kb/s
Width                                    : 720 pixels
Height                                   : 540 pixels
Display aspect ratio                     : 4:3
Frame rate mode                          : Constant
Frame rate                               : 23.976 (24000/1001) FPS
Chroma subsampling                       : 4:4:4
Bit depth                                : 8 bits
Scan type                                : Progressive
Bits/(Pixel*Frame)                       : 0.487
Stream size                              : 795 MiB (86%)
Writing library                          : x264 core 164 r3106 eaa68fa
Encoding settings                        : cabac=1 / ref=16 / deblock=1:0:0 / analyse=0x3:0x133 / me=umh / subme=10 / psy=1 / psy_rd=1.00:0.00 / mixed_ref=1 / me_range=24 / chroma_me=1 / trellis=2 / 8x8dct=1 / cqm=0 / deadzone=21,11 / fast_pskip=1 / chroma_qp_offset=4 / threads=17 / lookahead_threads=2 / sliced_threads=0 / nr=0 / decimate=1 / interlaced=0 / bluray_compat=0 / constrained_intra=0 / bframes=8 / b_pyramid=2 / b_adapt=2 / b_bias=0 / direct=3 / weightb=1 / open_gop=0 / weightp=2 / keyint=250 / keyint_min=23 / scenecut=40 / intra_refresh=0 / rc_lookahead=60 / rc=crf / mbtree=1 / crf=12.0 / qcomp=0.60 / qpmin=0 / qpmax=69 / qpstep=4 / ip_ratio=1.40 / aq=1:1.00
Default                                  : No
Forced                                   : No
Color range                              : Limited

Audio #1
ID                                       : 2
Format                                   : Opus
Codec ID                                 : A_OPUS
Duration                                 : 24 min 28 s
Bit rate                                 : 369 kb/s
Channel(s)                               : 2 channels
Channel layout                           : L R
Sampling rate                            : 48.0 kHz
Frame rate                               : 50.000 FPS (960 SPF)
Compression mode                         : Lossy
Stream size                              : 64.6 MiB (7%)
Writing library                          : Lavc60.9.100 libopus
Language                                 : Japanese
Default                                  : Yes
Forced                                   : No

Audio #2
ID                                       : 3
Format                                   : AC-3
Format/Info                              : Audio Coding 3
Commercial name                          : Dolby Digital
Codec ID                                 : A_AC3
Duration                                 : 24 min 26 s
Bit rate mode                            : Constant
Bit rate                                 : 192 kb/s
Channel(s)                               : 2 channels
Channel layout                           : L R
Sampling rate                            : 48.0 kHz
Frame rate                               : 31.250 FPS (1536 SPF)
Compression mode                         : Lossy
Stream size                              : 33.6 MiB (4%)
Language                                 : English
Service kind                             : Complete Main
Default                                  : Yes
Forced                                   : No

Audio #3
ID                                       : 4
Format                                   : AAC LC SBR
Format/Info                              : Advanced Audio Codec Low Complexity with Spectral Band Replication
Commercial name                          : HE-AAC
Format settings                          : Explicit
Codec ID                                 : A_AAC-2
Duration                                 : 24 min 28 s
Bit rate                                 : 128 kb/s
Channel(s)                               : 2 channels
Channel layout                           : L R
Sampling rate                            : 44.1 kHz
Frame rate                               : 21.533 FPS (2048 SPF)
Compression mode                         : Lossy
Stream size                              : 22.4 MiB (2%)
Language                                 : Spanish
Default                                  : Yes
Forced                                   : No

Text #1
ID                                       : 5
Format                                   : ASS
Codec ID                                 : S_TEXT/ASS
Codec ID/Info                            : Advanced Sub Station Alpha
Duration                                 : 24 min 17 s
Bit rate                                 : 74 b/s
Frame rate                               : 0.182 FPS
Count of elements                        : 265
Compression mode                         : Lossless
Stream size                              : 13.2 KiB (0%)
Title                                    : FULL SSA
Language                                 : English
Default                                  : Yes
Forced                                   : No

Text #2
ID                                       : 6
Format                                   : PGS
Muxing mode                              : zlib
Codec ID                                 : S_HDMV/PGS
Codec ID/Info                            : Picture based subtitle format used on BDs/HD-DVDs
Duration                                 : 24 min 17 s
Bit rate                                 : 31.0 kb/s
Frame rate                               : 0.329 FPS
Count of elements                        : 479
Stream size                              : 5.38 MiB (1%)
Title                                    : FULL PGS
Language                                 : English
Default                                  : Yes
Forced                                   : No

Text #3
ID                                       : 7
Format                                   : PGS
Muxing mode                              : zlib
Codec ID                                 : S_HDMV/PGS
Codec ID/Info                            : Picture based subtitle format used on BDs/HD-DVDs
Duration                                 : 24 min 17 s
Bit rate                                 : 4 216 b/s
Frame rate                               : 0.034 FPS
Count of elements                        : 50
Stream size                              : 750 KiB (0%)
Title                                    : SIGNS PGS
Language                                 : English
Default                                  : Yes
Forced                                   : No

Other Files in this Torrent
Getter Robo Armageddon - 12.mkv
beta
Anime DDL+NZB mirror
Current Time: 19/07/2024 17:29



About/FAQs

Discord