File Size948.9 MB (995,002,672 bytes)
DownloadClickNUpload | DailyUploads | DownloadGG | GoFile | KrakenFiles | MdiaLoad | Uppit
MultiUp: Part1
  • BdUpload
  • DownAce
  • Fichier
  • FileCloud
  • Filerio
  • FilesCdn
  • IndiShare
  • Kbagi
  • Turbobit
  • UpToBox
  • Uppit
, Part2
  • BdUpload
  • DownAce
  • Fichier
  • FileCloud
  • Filerio
  • FilesCdn
  • IndiShare
  • Kbagi
  • Turbobit
  • UpToBox
  • Uppit
HashesCRC32: 80CF48B4, MD5: BB81013BDED180917EABFCA5F21FB28C, SHA1: FC3E2301EC2E8D118299DE1D1910B368B25224C6, SHA256: 5D4E1BAA5286294C5062AD4251E0AC18B55BD7D4132B4E7036D010152703A185, ED2K: 5620B3547889A1806C685106D1EBB76E
Screenshots
screenshotscreenshotscreenshotscreenshotscreenshot
SubtitlesAll Attachments | FULL ASS [eng, ASS], FULL PGS [eng, PGS], SIGNS PGS [eng, PGS]
Additional Info
General
Unique ID                                : 201771365052929259924570735454765967391 (0x97CBC05AEEEE96241345E8DF53DBE81F)
Complete name                            : Getter Robo Armageddon - 03.mkv
Format                                   : Matroska
Format version                           : Version 4
File size                                : 949 MiB
Duration                                 : 24 min 57 s
Overall bit rate                         : 5 317 kb/s
Frame rate                               : 23.976 FPS
Movie name                               : Getter Robo Armageddon - 03
Encoded date                             : 2023-07-17 04:58:09 UTC
Writing application                      : mkvmerge v75.0.0 ('Goliath') 64-bit
Writing library                          : libebml v1.4.4 + libmatroska v1.7.1 / Lavf60.4.101
Attachments                              : Wolf Sans Regular (!rd-rd).ttf / FaxfontTone.otf / Franklin Gothic Demi Cond Regular.ttf / ARCENA.ttf

Video
ID                                       : 1
Format                                   : AVC
Format/Info                              : Advanced Video Codec
Format profile                           : High 4:4:4 Predictive@L4
Format settings                          : CABAC / 16 Ref Frames
Format settings, CABAC                   : Yes
Format settings, Reference frames        : 16 frames
Codec ID                                 : V_MPEG4/ISO/AVC
Duration                                 : 24 min 57 s
Bit rate                                 : 4 471 kb/s
Width                                    : 720 pixels
Height                                   : 540 pixels
Display aspect ratio                     : 4:3
Frame rate mode                          : Constant
Frame rate                               : 23.976 (24000/1001) FPS
Chroma subsampling                       : 4:4:4
Bit depth                                : 8 bits
Scan type                                : Progressive
Bits/(Pixel*Frame)                       : 0.480
Stream size                              : 798 MiB (84%)
Writing library                          : x264 core 164 r3106 eaa68fa
Encoding settings                        : cabac=1 / ref=16 / deblock=1:0:0 / analyse=0x3:0x133 / me=umh / subme=10 / psy=1 / psy_rd=1.00:0.00 / mixed_ref=1 / me_range=24 / chroma_me=1 / trellis=2 / 8x8dct=1 / cqm=0 / deadzone=21,11 / fast_pskip=1 / chroma_qp_offset=4 / threads=17 / lookahead_threads=2 / sliced_threads=0 / nr=0 / decimate=1 / interlaced=0 / bluray_compat=0 / constrained_intra=0 / bframes=8 / b_pyramid=2 / b_adapt=2 / b_bias=0 / direct=3 / weightb=1 / open_gop=0 / weightp=2 / keyint=250 / keyint_min=23 / scenecut=40 / intra_refresh=0 / rc_lookahead=60 / rc=crf / mbtree=1 / crf=12.0 / qcomp=0.60 / qpmin=0 / qpmax=69 / qpstep=4 / ip_ratio=1.40 / aq=1:1.00
Default                                  : No
Forced                                   : No
Color range                              : Limited

Audio #1
ID                                       : 2
Format                                   : Opus
Codec ID                                 : A_OPUS
Duration                                 : 24 min 57 s
Bit rate                                 : 373 kb/s
Channel(s)                               : 2 channels
Channel layout                           : L R
Sampling rate                            : 48.0 kHz
Frame rate                               : 50.000 FPS (960 SPF)
Compression mode                         : Lossy
Stream size                              : 66.6 MiB (7%)
Writing library                          : Lavc60.9.100 libopus
Language                                 : Japanese
Default                                  : Yes
Forced                                   : No

Audio #2
ID                                       : 3
Format                                   : AC-3
Format/Info                              : Audio Coding 3
Commercial name                          : Dolby Digital
Codec ID                                 : A_AC3
Duration                                 : 24 min 55 s
Bit rate mode                            : Constant
Bit rate                                 : 192 kb/s
Channel(s)                               : 2 channels
Channel layout                           : L R
Sampling rate                            : 48.0 kHz
Frame rate                               : 31.250 FPS (1536 SPF)
Compression mode                         : Lossy
Stream size                              : 34.2 MiB (4%)
Language                                 : English
Service kind                             : Complete Main
Default                                  : No
Forced                                   : No

Audio #3
ID                                       : 4
Format                                   : AAC LC
Format/Info                              : Advanced Audio Codec Low Complexity
Codec ID                                 : A_AAC-2
Duration                                 : 24 min 57 s
Bit rate                                 : 257 kb/s
Channel(s)                               : 2 channels
Channel layout                           : L R
Sampling rate                            : 48.0 kHz
Frame rate                               : 46.875 FPS (1024 SPF)
Compression mode                         : Lossy
Stream size                              : 45.8 MiB (5%)
Language                                 : Spanish
Default                                  : Yes
Forced                                   : No

Text #1
ID                                       : 5
Format                                   : ASS
Codec ID                                 : S_TEXT/ASS
Codec ID/Info                            : Advanced Sub Station Alpha
Duration                                 : 24 min 34 s
Bit rate                                 : 64 b/s
Frame rate                               : 0.146 FPS
Count of elements                        : 215
Compression mode                         : Lossless
Stream size                              : 11.6 KiB (0%)
Title                                    : FULL ASS
Language                                 : English
Default                                  : Yes
Forced                                   : No

Text #2
ID                                       : 6
Format                                   : PGS
Muxing mode                              : zlib
Codec ID                                 : S_HDMV/PGS
Codec ID/Info                            : Picture based subtitle format used on BDs/HD-DVDs
Duration                                 : 24 min 34 s
Bit rate                                 : 31.9 kb/s
Frame rate                               : 0.260 FPS
Count of elements                        : 384
Stream size                              : 5.61 MiB (1%)
Title                                    : FULL PGS
Language                                 : English
Default                                  : Yes
Forced                                   : No

Text #3
ID                                       : 7
Format                                   : PGS
Muxing mode                              : zlib
Codec ID                                 : S_HDMV/PGS
Codec ID/Info                            : Picture based subtitle format used on BDs/HD-DVDs
Duration                                 : 24 min 34 s
Bit rate                                 : 2 667 b/s
Frame rate                               : 0.028 FPS
Count of elements                        : 41
Stream size                              : 480 KiB (0%)
Title                                    : SIGNS PGS
Language                                 : English
Default                                  : Yes
Forced                                   : No

Other Files in this Torrent
Getter Robo Armageddon - 03.mkv
beta
Anime DDL+NZB mirror
Current Time: 19/07/2024 18:01



About/FAQs

Discord