File Size958.8 MB (1,005,343,149 bytes)
DownloadClickNUpload | DailyUploads | DownloadGG | GoFile | KrakenFiles | MdiaLoad | Uppit
MultiUp: Part1
  • BdUpload
  • DownAce
  • Fichier
  • FileCloud
  • Filerio
  • FilesCdn
  • IndiShare
  • Kbagi
  • Turbobit
  • UpToBox
  • Uppit
, Part2
  • BdUpload
  • DownAce
  • Fichier
  • FileCloud
  • Filerio
  • FilesCdn
  • IndiShare
  • Kbagi
  • Turbobit
  • UpToBox
  • Uppit
HashesCRC32: 45D426AE, MD5: F6BFB34B6655E8731EB7F7D2F89B4BC7, SHA1: 31272120BC0B261D9769159216EE008557BCE75B, SHA256: 3B299AF5504C7E43A031A0D9FC529757B1BAC90CF7597783E798232D9414BF1C, ED2K: 5B708B2111D59A98225CB882FB5A52E8
Screenshots
screenshotscreenshotscreenshotscreenshotscreenshot
SubtitlesAll Attachments | FULL SSA [eng, ASS], FULL PGS [eng, PGS], SIGNS PGS [eng, PGS]
Additional Info
General
Unique ID                                : 153588318651851178837309113853138905132 (0x738C08C15443DD21AB7267B423B3282C)
Complete name                            : Getter Robo Armageddon - 06.mkv
Format                                   : Matroska
Format version                           : Version 4
File size                                : 959 MiB
Duration                                 : 24 min 57 s
Overall bit rate                         : 5 371 kb/s
Frame rate                               : 23.976 FPS
Encoded date                             : 2023-07-17 06:56:14 UTC
Writing application                      : mkvmerge v75.0.0 ('Goliath') 64-bit
Writing library                          : libebml v1.4.4 + libmatroska v1.7.1 / Lavf60.4.101
Attachments                              : Franklin Gothic Demi Cond Regular.ttf / Wolf Sans Regular (!rd-rd).ttf / ARCENA.ttf / FaxfontTone.otf

Video
ID                                       : 1
Format                                   : AVC
Format/Info                              : Advanced Video Codec
Format profile                           : High 4:4:4 Predictive@L4
Format settings                          : CABAC / 16 Ref Frames
Format settings, CABAC                   : Yes
Format settings, Reference frames        : 16 frames
Codec ID                                 : V_MPEG4/ISO/AVC
Duration                                 : 24 min 56 s
Bit rate                                 : 4 696 kb/s
Width                                    : 720 pixels
Height                                   : 540 pixels
Display aspect ratio                     : 4:3
Frame rate mode                          : Constant
Frame rate                               : 23.976 (24000/1001) FPS
Chroma subsampling                       : 4:4:4
Bit depth                                : 8 bits
Scan type                                : Progressive
Bits/(Pixel*Frame)                       : 0.504
Stream size                              : 838 MiB (87%)
Writing library                          : x264 core 164 r3106 eaa68fa
Encoding settings                        : cabac=1 / ref=16 / deblock=1:0:0 / analyse=0x3:0x133 / me=umh / subme=10 / psy=1 / psy_rd=1.00:0.00 / mixed_ref=1 / me_range=24 / chroma_me=1 / trellis=2 / 8x8dct=1 / cqm=0 / deadzone=21,11 / fast_pskip=1 / chroma_qp_offset=4 / threads=17 / lookahead_threads=2 / sliced_threads=0 / nr=0 / decimate=1 / interlaced=0 / bluray_compat=0 / constrained_intra=0 / bframes=8 / b_pyramid=2 / b_adapt=2 / b_bias=0 / direct=3 / weightb=1 / open_gop=0 / weightp=2 / keyint=250 / keyint_min=23 / scenecut=40 / intra_refresh=0 / rc_lookahead=60 / rc=crf / mbtree=1 / crf=12.0 / qcomp=0.60 / qpmin=0 / qpmax=69 / qpstep=4 / ip_ratio=1.40 / aq=1:1.00
Default                                  : No
Forced                                   : No
Color range                              : Limited

Audio #1
ID                                       : 2
Format                                   : Opus
Codec ID                                 : A_OPUS
Duration                                 : 24 min 56 s
Bit rate                                 : 371 kb/s
Channel(s)                               : 2 channels
Channel layout                           : L R
Sampling rate                            : 48.0 kHz
Frame rate                               : 50.000 FPS (960 SPF)
Compression mode                         : Lossy
Stream size                              : 66.1 MiB (7%)
Writing library                          : Lavc60.9.100 libopus
Language                                 : Japanese
Default                                  : Yes
Forced                                   : No

Audio #2
ID                                       : 3
Format                                   : AC-3
Format/Info                              : Audio Coding 3
Commercial name                          : Dolby Digital
Codec ID                                 : A_AC3
Duration                                 : 24 min 54 s
Bit rate mode                            : Constant
Bit rate                                 : 192 kb/s
Channel(s)                               : 2 channels
Channel layout                           : L R
Sampling rate                            : 48.0 kHz
Frame rate                               : 31.250 FPS (1536 SPF)
Compression mode                         : Lossy
Stream size                              : 34.2 MiB (4%)
Language                                 : English
Service kind                             : Complete Main
Default                                  : Yes
Forced                                   : No

Audio #3
ID                                       : 4
Format                                   : AAC LC
Format/Info                              : Advanced Audio Codec Low Complexity
Codec ID                                 : A_AAC-2
Duration                                 : 24 min 57 s
Bit rate                                 : 96.0 kb/s
Channel(s)                               : 2 channels
Channel layout                           : L R
Sampling rate                            : 44.1 kHz
Frame rate                               : 43.066 FPS (1024 SPF)
Compression mode                         : Lossy
Delay relative to video                  : 16 ms
Stream size                              : 17.1 MiB (2%)
Language                                 : Spanish
Default                                  : Yes
Forced                                   : No

Text #1
ID                                       : 5
Format                                   : ASS
Codec ID                                 : S_TEXT/ASS
Codec ID/Info                            : Advanced Sub Station Alpha
Duration                                 : 24 min 45 s
Bit rate                                 : 53 b/s
Frame rate                               : 0.133 FPS
Count of elements                        : 197
Compression mode                         : Lossless
Stream size                              : 9.76 KiB (0%)
Title                                    : FULL SSA
Language                                 : English
Default                                  : Yes
Forced                                   : No

Text #2
ID                                       : 6
Format                                   : PGS
Muxing mode                              : zlib
Codec ID                                 : S_HDMV/PGS
Codec ID/Info                            : Picture based subtitle format used on BDs/HD-DVDs
Duration                                 : 24 min 45 s
Bit rate                                 : 22.4 kb/s
Frame rate                               : 0.247 FPS
Count of elements                        : 367
Stream size                              : 3.96 MiB (0%)
Title                                    : FULL PGS
Language                                 : English
Default                                  : Yes
Forced                                   : No

Text #3
ID                                       : 7
Format                                   : PGS
Muxing mode                              : zlib
Codec ID                                 : S_HDMV/PGS
Codec ID/Info                            : Picture based subtitle format used on BDs/HD-DVDs
Duration                                 : 24 min 45 s
Bit rate                                 : 3 452 b/s
Frame rate                               : 0.029 FPS
Count of elements                        : 43
Stream size                              : 626 KiB (0%)
Title                                    : SIGNS PGS
Language                                 : English
Default                                  : Yes
Forced                                   : No

Other Files in this Torrent
Getter Robo Armageddon - 06.mkv
beta
Anime DDL+NZB mirror
Current Time: 19/07/2024 19:03



About/FAQs

Discord