File Size988.6 MB (1,036,621,116 bytes)
DownloadClickNUpload | DailyUploads | DownloadGG | GoFile | KrakenFiles | MdiaLoad | Uppit
MultiUp: Part1
  • BdUpload
  • DownAce
  • Fichier
  • FileCloud
  • Filerio
  • FilesCdn
  • IndiShare
  • Kbagi
  • Turbobit
  • UpToBox
  • Uppit
, Part2
  • BdUpload
  • DownAce
  • Fichier
  • FileCloud
  • Filerio
  • FilesCdn
  • IndiShare
  • Kbagi
  • Turbobit
  • UpToBox
  • Uppit
HashesCRC32: 28A9B039, MD5: F2476A84FA0DE3EEA93CC46B948E44A0, SHA1: 5E71C34370959B8F66722939509952736F567A65, SHA256: D58E91484C2B5BE87B24E710CAD851D162A60ABEF2001AB038069ABCF5D8D496, ED2K: 4D727C6ADEB0D53BA2233E1451609A9D
Screenshots
screenshotscreenshotscreenshotscreenshotscreenshot
SubtitlesAll Attachments | FULL ASS [eng, ASS], FULL PGS [eng, PGS], SIGNS PGS [eng, PGS]
Additional Info
General
Unique ID                                : 258448135347372680797015463136131196379 (0xC26F4CE00B8389BE48E4048F978AA5DB)
Complete name                            : Getter Robo Armageddon - 01.mkv
Format                                   : Matroska
Format version                           : Version 4
File size                                : 989 MiB
Duration                                 : 25 min 35 s
Overall bit rate                         : 5 401 kb/s
Frame rate                               : 23.976 FPS
Movie name                               : Getter Robo Armageddon - 01
Encoded date                             : 2023-07-17 05:03:58 UTC
Writing application                      : mkvmerge v75.0.0 ('Goliath') 64-bit
Writing library                          : libebml v1.4.4 + libmatroska v1.7.1 / Lavf60.4.101
Attachments                              : Franklin Gothic Demi Cond Regular.ttf / JosephsBrush Italic (! sq).ttf / JosephsBrush Regular (! sq).ttf / Wolf Sans Regular (!rd-rd).ttf / FaxfontTone.otf / ARCENA.ttf

Video
ID                                       : 1
Format                                   : AVC
Format/Info                              : Advanced Video Codec
Format profile                           : High 4:4:4 Predictive@L4
Format settings                          : CABAC / 16 Ref Frames
Format settings, CABAC                   : Yes
Format settings, Reference frames        : 16 frames
Codec ID                                 : V_MPEG4/ISO/AVC
Duration                                 : 25 min 35 s
Bit rate                                 : 4 561 kb/s
Width                                    : 720 pixels
Height                                   : 540 pixels
Display aspect ratio                     : 4:3
Frame rate mode                          : Constant
Frame rate                               : 23.976 (24000/1001) FPS
Chroma subsampling                       : 4:4:4
Bit depth                                : 8 bits
Scan type                                : Progressive
Bits/(Pixel*Frame)                       : 0.489
Stream size                              : 835 MiB (84%)
Writing library                          : x264 core 164 r3106 eaa68fa
Encoding settings                        : cabac=1 / ref=16 / deblock=1:0:0 / analyse=0x3:0x133 / me=umh / subme=10 / psy=1 / psy_rd=1.00:0.00 / mixed_ref=1 / me_range=24 / chroma_me=1 / trellis=2 / 8x8dct=1 / cqm=0 / deadzone=21,11 / fast_pskip=1 / chroma_qp_offset=4 / threads=17 / lookahead_threads=2 / sliced_threads=0 / nr=0 / decimate=1 / interlaced=0 / bluray_compat=0 / constrained_intra=0 / bframes=8 / b_pyramid=2 / b_adapt=2 / b_bias=0 / direct=3 / weightb=1 / open_gop=0 / weightp=2 / keyint=250 / keyint_min=23 / scenecut=40 / intra_refresh=0 / rc_lookahead=60 / rc=crf / mbtree=1 / crf=12.0 / qcomp=0.60 / qpmin=0 / qpmax=69 / qpstep=4 / ip_ratio=1.40 / aq=1:1.00
Default                                  : Yes
Forced                                   : No
Color range                              : Limited

Audio #1
ID                                       : 2
Format                                   : Opus
Codec ID                                 : A_OPUS
Duration                                 : 25 min 35 s
Bit rate                                 : 377 kb/s
Channel(s)                               : 2 channels
Channel layout                           : L R
Sampling rate                            : 48.0 kHz
Frame rate                               : 50.000 FPS (960 SPF)
Compression mode                         : Lossy
Stream size                              : 69.0 MiB (7%)
Writing library                          : Lavc60.9.100 libopus
Language                                 : Japanese
Default                                  : Yes
Forced                                   : No

Audio #2
ID                                       : 3
Format                                   : AC-3
Format/Info                              : Audio Coding 3
Commercial name                          : Dolby Digital
Codec ID                                 : A_AC3
Duration                                 : 25 min 32 s
Bit rate mode                            : Constant
Bit rate                                 : 192 kb/s
Channel(s)                               : 2 channels
Channel layout                           : L R
Sampling rate                            : 48.0 kHz
Frame rate                               : 31.250 FPS (1536 SPF)
Compression mode                         : Lossy
Stream size                              : 35.1 MiB (4%)
Language                                 : English
Service kind                             : Complete Main
Default                                  : No
Forced                                   : No

Audio #3
ID                                       : 4
Format                                   : AAC LC
Format/Info                              : Advanced Audio Codec Low Complexity
Codec ID                                 : A_AAC-2
Duration                                 : 25 min 35 s
Bit rate                                 : 242 kb/s
Channel(s)                               : 2 channels
Channel layout                           : L R
Sampling rate                            : 48.0 kHz
Frame rate                               : 46.875 FPS (1024 SPF)
Compression mode                         : Lossy
Stream size                              : 44.3 MiB (4%)
Language                                 : Spanish
Default                                  : Yes
Forced                                   : No

Text #1
ID                                       : 5
Format                                   : ASS
Codec ID                                 : S_TEXT/ASS
Codec ID/Info                            : Advanced Sub Station Alpha
Duration                                 : 24 min 58 s
Bit rate                                 : 83 b/s
Frame rate                               : 0.186 FPS
Count of elements                        : 278
Compression mode                         : Lossless
Stream size                              : 15.3 KiB (0%)
Title                                    : FULL ASS
Language                                 : English
Default                                  : Yes
Forced                                   : No

Text #2
ID                                       : 6
Format                                   : PGS
Muxing mode                              : zlib
Codec ID                                 : S_HDMV/PGS
Codec ID/Info                            : Picture based subtitle format used on BDs/HD-DVDs
Duration                                 : 24 min 58 s
Bit rate                                 : 36.3 kb/s
Frame rate                               : 0.332 FPS
Count of elements                        : 497
Stream size                              : 6.49 MiB (1%)
Title                                    : FULL PGS
Language                                 : English
Default                                  : Yes
Forced                                   : No

Text #3
ID                                       : 7
Format                                   : PGS
Muxing mode                              : zlib
Codec ID                                 : S_HDMV/PGS
Codec ID/Info                            : Picture based subtitle format used on BDs/HD-DVDs
Duration                                 : 24 min 30 s
Bit rate                                 : 3 068 b/s
Frame rate                               : 0.027 FPS
Count of elements                        : 40
Stream size                              : 551 KiB (0%)
Title                                    : SIGNS PGS
Language                                 : English
Default                                  : Yes
Forced                                   : No

Other Files in this Torrent
Getter Robo Armageddon - 01.mkv
beta
Anime DDL+NZB mirror
Current Time: 19/07/2024 18:04



About/FAQs

Discord