[F-D] OVA - Kino no Tabi - 'Episode 00' - Tower Country (2005) (Single Audio) (don't start the series here) [480P][Dual-Audio].mkv


File Size36.55 MB (38,323,326 bytes)
DownloadClickNUpload | Go4Up
  • Ezfile
  • FileFactory
  • FilePup
  • MegaShares
  • Nitroflare
  • NowDownload
  • Oboom
  • OpenLoad
  • Rapidgator
  • Share-Online
  • ToutBox
  • Uplea
  • Uploadable
  • Uppit
  • UsersCloud
| Jheberg | MultiUp
  • ClickNupload
  • Fichier
  • Filerio
  • Free
  • Fufox
  • HugeFiles
  • Mightyupload
  • ToutBox
  • Turbobit
  • UpToBox
  • Uplea
  • UploadBaz
  • Uploadable
  • Uploaded
  • Uppit
  • Userscloud
  • ZippyShare
| OpenLoad | Sendspace | SolidFiles
HashesCRC32: 349D47AD, MD5: 362152CC17242B66868004AEEA35BEA4, SHA1: DF24793773A61CC8DD01A067A4EFF07953C2990C, SHA256: BB6D247D19E7D1BEBB826B72010CBB2417F2BE38F525BC70D39329F3F0ED053F, ED2K: ED5AB37AFE7E1D523302313E3FA3A44D
Screenshots
screenshotscreenshotscreenshotscreenshotscreenshot
SubtitlesAll Attachments | eng [ASS], eng [ASS]
Additional Info
General
Unique ID                                : 119834939780084626732822558570279943219 (0x5A275EB1270195C6FD37D0FED5AD3C33)
Complete name                            : [F-D] OVA - Kino no Tabi  - 'Episode 00' - Tower Country (2005) (Single Audio) (don't start the series here) [480P][Dual-Audio].mkv
Format                                   : Matroska
Format version                           : Version 4 / Version 2
File size                                : 36.5 MiB
Duration                                 : 12 min 34 s
Overall bit rate mode                    : Variable
Overall bit rate                         : 406 kb/s
Encoded date                             : UTC 2017-05-17T10:00:54Z
Writing application                      : HandBrake 20170329202521-9884aa1-master 2017033101
Writing library                          : Lavf57.7.2 / Lavf57.7.2
Attachments                              : LTe52140.ttf / Virtue.ttf / TIMES.TTF / TIMESBD.TTF / TIMESBI.TTF / TIMESI.TTF

Video
ID                                       : 1
Format                                   : AVC
Format/Info                              : Advanced Video Codec
Format profile                           : High@L4
Format settings, CABAC                   : Yes
Format settings, ReFrames                : 16 frames
Codec ID                                 : V_MPEG4/ISO/AVC
Duration                                 : 12 min 34 s
Bit rate                                 : 300 kb/s
Width                                    : 842 pixels
Height                                   : 480 pixels
Display aspect ratio                     : 16:9
Frame rate mode                          : Constant
Frame rate                               : 23.976 (24000/1001) FPS
Color space                              : YUV
Chroma subsampling                       : 4:2:0
Bit depth                                : 8 bits
Scan type                                : Progressive
Bits/(Pixel*Frame)                       : 0.031
Stream size                              : 27.2 MiB (74%)
Writing library                          : x264 core 148 r2708 86b7198
Encoding settings                        : cabac=1 / ref=16 / deblock=1:1:1 / analyse=0x3:0x133 / me=umh / subme=10 / psy=1 / psy_rd=0.40:0.00 / mixed_ref=1 / me_range=24 / chroma_me=1 / trellis=2 / 8x8dct=1 / cqm=0 / deadzone=21,11 / fast_pskip=1 / chroma_qp_offset=-2 / threads=6 / lookahead_threads=1 / sliced_threads=0 / nr=0 / decimate=1 / interlaced=0 / bluray_compat=0 / constrained_intra=0 / bframes=10 / b_pyramid=2 / b_adapt=2 / b_bias=0 / direct=3 / weightb=1 / open_gop=0 / weightp=2 / keyint=240 / keyint_min=24 / scenecut=40 / intra_refresh=0 / rc_lookahead=60 / rc=2pass / mbtree=1 / bitrate=300 / ratetol=1.0 / qcomp=0.60 / qpmin=0 / qpmax=69 / qpstep=4 / cplxblur=20.0 / qblur=0.5 / ip_ratio=1.40 / aq=1:0.60
Default                                  : Yes
Forced                                   : No
Color range                              : Limited
Color primaries                          : BT.601 NTSC
Transfer characteristics                 : BT.709
Matrix coefficients                      : BT.601

Audio
ID                                       : 2
Format                                   : Vorbis
Format settings, Floor                   : 1
Codec ID                                 : A_VORBIS
Duration                                 : 12 min 34 s
Bit rate mode                            : Variable
Bit rate                                 : 96.0 kb/s
Channel(s)                               : 2 channels
Sampling rate                            : 48.0 kHz
Compression mode                         : Lossy
Stream size                              : 8.63 MiB (24%)
Title                                    : Stereo
Writing application                      : HandBrake
Writing library                          : aoTuV 20110424 (UTC 2011-04-24)
Language                                 : Unknown
Default                                  : Yes
Forced                                   : No

Text #1
ID                                       : 3
Format                                   : ASS
Codec ID                                 : S_TEXT/ASS
Codec ID/Info                            : Advanced Sub Station Alpha
Compression mode                         : Lossless
Language                                 : English
Default                                  : Yes
Forced                                   : Yes

Text #2
ID                                       : 4
Format                                   : ASS
Codec ID                                 : S_TEXT/ASS
Codec ID/Info                            : Advanced Sub Station Alpha
Compression mode                         : Lossless
Language                                 : English
Default                                  : No
Forced                                   : No

Other Files in this Torrent
[F-D] OVA - Kino no Tabi - 'Episode 00' - Tower Country (2005) (Single Audio) (don't start the series here) [480P][Dual-Audio].mkv
beta
Anime DDL+NZB mirror
Current Time: 21/06/2024 23:03



About/FAQs

Discord