[F-D] 03. Kino no Tabi - the Beautiful World [480P][Dual-Audio].mkv


File Size73.85 MB (77,434,999 bytes)
DownloadClickNUpload | Go4Up | Jheberg | MultiUp
  • ClickNupload
  • Fichier
  • Filerio
  • Free
  • Fufox
  • HugeFiles
  • Mightyupload
  • ToutBox
  • Turbobit
  • UpToBox
  • Uplea
  • UploadBaz
  • Uploadable
  • Uploaded
  • Uppit
  • Userscloud
  • ZippyShare
| OpenLoad | Sendspace | SolidFiles
HashesCRC32: 4ED67C7A, MD5: 1FA344502F7A1060645C2F00D5F304FE, SHA1: EAF89E72B0FF4479AB86F1EBDBADE34622AAE067, SHA256: 6A6D4628DBEF0AD138D5AC420D2F013F9786A630C9EDE421992B424CC6C66A37, ED2K: 6B3911197EE1D18C2ADDB02400173635
Screenshots
screenshotscreenshotscreenshotscreenshotscreenshot
SubtitlesAll Attachments | und [ASS]
Additional Info
General
Unique ID                                : 13106439354353054272356960390402287751 (0x9DC3559D012DE33E0259EBFD5D02887)
Complete name                            : [F-D] 03. Kino no Tabi - the Beautiful World [480P][Dual-Audio].mkv
Format                                   : Matroska
Format version                           : Version 4 / Version 2
File size                                : 73.8 MiB
Duration                                 : 21 min 0 s
Overall bit rate mode                    : Variable
Overall bit rate                         : 492 kb/s
Movie name                               : [KAA] Kino no Tabi ~ the Beautiful World - 03
Encoded date                             : UTC 2017-05-17T05:20:09Z
Writing application                      : HandBrake 20170329202521-9884aa1-master 2017033101
Writing library                          : Lavf57.7.2 / Lavf57.7.2
Attachments                              : LTe52140.ttf / AJensonPro-SemiboldItSubh.ttf / AJensonPro-SemiboldSubh.ttf / BASKVILL.TTF / CORBEL.TTF / CORBELB.TTF / CORBELI.TTF / CORBELZ.TTF / LTe52140.ttf

Video
ID                                       : 1
Format                                   : AVC
Format/Info                              : Advanced Video Codec
Format profile                           : High@L4
Format settings, CABAC                   : Yes
Format settings, ReFrames                : 16 frames
Codec ID                                 : V_MPEG4/ISO/AVC
Duration                                 : 21 min 0 s
Bit rate                                 : 300 kb/s
Width                                    : 842 pixels
Height                                   : 480 pixels
Display aspect ratio                     : 16:9
Frame rate mode                          : Constant
Frame rate                               : 23.976 (24000/1001) FPS
Color space                              : YUV
Chroma subsampling                       : 4:2:0
Bit depth                                : 8 bits
Scan type                                : Progressive
Bits/(Pixel*Frame)                       : 0.031
Stream size                              : 43.5 MiB (59%)
Writing library                          : x264 core 148 r2708 86b7198
Encoding settings                        : cabac=1 / ref=16 / deblock=1:1:1 / analyse=0x3:0x133 / me=umh / subme=10 / psy=1 / psy_rd=0.40:0.00 / mixed_ref=1 / me_range=24 / chroma_me=1 / trellis=2 / 8x8dct=1 / cqm=0 / deadzone=21,11 / fast_pskip=1 / chroma_qp_offset=-2 / threads=6 / lookahead_threads=1 / sliced_threads=0 / nr=0 / decimate=1 / interlaced=0 / bluray_compat=0 / constrained_intra=0 / bframes=10 / b_pyramid=2 / b_adapt=2 / b_bias=0 / direct=3 / weightb=1 / open_gop=0 / weightp=2 / keyint=240 / keyint_min=24 / scenecut=40 / intra_refresh=0 / rc_lookahead=60 / rc=2pass / mbtree=1 / bitrate=300 / ratetol=1.0 / qcomp=0.60 / qpmin=0 / qpmax=69 / qpstep=4 / cplxblur=20.0 / qblur=0.5 / ip_ratio=1.40 / aq=1:0.60
Default                                  : Yes
Forced                                   : No
Color range                              : Limited
Color primaries                          : BT.601 NTSC
Transfer characteristics                 : BT.709
Matrix coefficients                      : BT.601

Audio #1
ID                                       : 2
Format                                   : Vorbis
Format settings, Floor                   : 1
Codec ID                                 : A_VORBIS
Duration                                 : 21 min 0 s
Bit rate mode                            : Variable
Bit rate                                 : 96.0 kb/s
Channel(s)                               : 2 channels
Sampling rate                            : 48.0 kHz
Compression mode                         : Lossy
Stream size                              : 14.4 MiB (20%)
Title                                    : Stereo
Writing application                      : HandBrake
Writing library                          : aoTuV 20110424 (UTC 2011-04-24)
Language                                 : 日本語
Default                                  : Yes
Forced                                   : No

Audio #2
ID                                       : 3
Format                                   : Vorbis
Format settings, Floor                   : 1
Codec ID                                 : A_VORBIS
Duration                                 : 21 min 0 s
Bit rate mode                            : Variable
Bit rate                                 : 96.0 kb/s
Channel(s)                               : 2 channels
Sampling rate                            : 48.0 kHz
Compression mode                         : Lossy
Stream size                              : 14.4 MiB (20%)
Title                                    : Stereo
Writing application                      : HandBrake
Writing library                          : aoTuV 20110424 (UTC 2011-04-24)
Language                                 : English
Default                                  : No
Forced                                   : No

Text
ID                                       : 4
Format                                   : ASS
Codec ID                                 : S_TEXT/ASS
Codec ID/Info                            : Advanced Sub Station Alpha
Compression mode                         : Lossless
Default                                  : Yes
Forced                                   : Yes

Menu
00:00:00.000                             : :Chapter 1
00:00:39.289                             : :Chapter 2
00:06:50.201                             : :Chapter 3
00:11:53.421                             : :Chapter 4
00:18:44.373                             : :Chapter 5

Other Files in this Torrent
[F-D] 03. Kino no Tabi - the Beautiful World [480P][Dual-Audio].mkv
beta
Anime DDL+NZB mirror
Current Time: 21/06/2024 23:07



About/FAQs

Discord