File Size296.8 MB (311,232,536 bytes)
DownloadClickNUpload | DailyUploads | DownloadGG | GoFile | KrakenFiles | MdiaLoad | MultiUp
  • BdUpload
  • DownAce
  • Fichier
  • FileCloud
  • Filerio
  • FilesCdn
  • IndiShare
  • Kbagi
  • Turbobit
  • UpToBox
  • Uppit
| Uppit
HashesCRC32: B1191E2C, MD5: EF67561DA9DCA5643FE2E102973A1E07, SHA1: DACD2E4462037A05723D39CB57304A0AFEAE6E7D, SHA256: 2CCF6076E47F41CE6AFA6F9945303D1609BE5417E00AF63FBEA205CC46A40543, ED2K: B79531CC0FA2A38F4924BA93D7F4E9B3
Screenshots
screenshotscreenshotscreenshotscreenshotscreenshot
SubtitlesAll Attachments | English subs [eng, ASS]
Additional Info
General
Unique ID                                : 52973042450437206527170591038782454632 (0x27DA3CA384262FC8F2379A183D1A3B68)
Complete name                            : [DarkLegends] Solo Leveling - 08 [1080p][AV1 10bit][J2B].mkv
Format                                   : Matroska
Format version                           : Version 4
File size                                : 297 MiB
Duration                                 : 23 min 40 s
Overall bit rate                         : 1 753 kb/s
Frame rate                               : 23.976 FPS
Encoded date                             : 2024-03-19 03:23:15 UTC
Writing application                      : mkvmerge v83.0 ('Circle Of Friends') 64-bit
Writing library                          : libebml v1.4.5 + libmatroska v1.7.1
Attachments                              : arial.ttf / arialbd.ttf / comic.ttf / comicbd.ttf / CONSOLA.ttf / CONSOLAB.ttf / Roboto-Medium.ttf / Roboto-MediumItalic.ttf / times.ttf / timesbd.ttf / trebuc.ttf / trebucbd.ttf / verdana.ttf / verdanab.ttf

Video
ID                                       : 1
Format                                   : AV1
Format/Info                              : AOMedia Video 1
Format profile                           : Main@L4.0
Codec ID                                 : V_AV1
Duration                                 : 23 min 40 s
Bit rate                                 : 1 586 kb/s
Width                                    : 1 920 pixels
Height                                   : 1 080 pixels
Display aspect ratio                     : 16:9
Frame rate mode                          : Constant
Frame rate                               : 23.976 (24000/1001) FPS
Color space                              : YUV
Chroma subsampling                       : 4:2:0
Bit depth                                : 10 bits
Bits/(Pixel*Frame)                       : 0.032
Stream size                              : 269 MiB (90%)
Default                                  : Yes
Forced                                   : No
Color range                              : Limited

Audio
ID                                       : 2
Format                                   : AAC LC
Format/Info                              : Advanced Audio Codec Low Complexity
Codec ID                                 : A_AAC-2
Duration                                 : 23 min 40 s
Bit rate                                 : 128 kb/s
Channel(s)                               : 2 channels
Channel layout                           : L R
Sampling rate                            : 44.1 kHz
Frame rate                               : 43.066 FPS (1024 SPF)
Compression mode                         : Lossy
Stream size                              : 21.7 MiB (7%)
Language                                 : Japanese
Default                                  : No
Forced                                   : No

Text
ID                                       : 3
Format                                   : ASS
Codec ID                                 : S_TEXT/ASS
Codec ID/Info                            : Advanced Sub Station Alpha
Duration                                 : 23 min 31 s
Bit rate                                 : 124 b/s
Frame rate                               : 0.203 FPS
Count of elements                        : 286
Compression mode                         : Lossless
Stream size                              : 21.5 KiB (0%)
Title                                    : English subs
Language                                 : English
Default                                  : Yes
Forced                                   : No

Other Files in this Torrent
[DarkLegends] Solo Leveling - 08 [1080p][AV1 10bit][J2B].mkv
beta
Anime DDL+NZB mirror
Current Time: 14/06/2024 08:19



About/FAQs

Discord