File Size258.3 MB (270,805,195 bytes)
DownloadClickNUpload | DailyUploads | DownloadGG | GoFile | KrakenFiles | MdiaLoad | MultiUp
  • BdUpload
  • DownAce
  • Fichier
  • FileCloud
  • Filerio
  • FilesCdn
  • IndiShare
  • Kbagi
  • Turbobit
  • UpToBox
  • Uppit
| Uppit
HashesCRC32: 21A58CCE, MD5: 00705F61153A9714B80819A9DCA36A44, SHA1: 7E2612378050FAA7581A3BE72BF1D2547D6ABECF, SHA256: 32F14BB4A6257E8371DF399B792DFA7085941E8D4F0FB23F7F1B910175D55DD2, ED2K: DD10FB66958E6670458FAB943846CD3E
Screenshots
screenshotscreenshotscreenshotscreenshotscreenshot
SubtitlesAll Attachments | English subs [eng, ASS]
Additional Info
General
Unique ID                                : 143436235954733580914328904369684364266 (0x6BE8D06EFCE922C519CC76DF6AA43BEA)
Complete name                            : [DarkLegends] Solo Leveling - 01 [1080p][AV1 10bit][J2B].mkv
Format                                   : Matroska
Format version                           : Version 4
File size                                : 258 MiB
Duration                                 : 23 min 40 s
Overall bit rate                         : 1 526 kb/s
Frame rate                               : 23.976 FPS
Encoded date                             : 2024-03-18 23:07:15 UTC
Writing application                      : mkvmerge v83.0 ('Circle Of Friends') 64-bit
Writing library                          : libebml v1.4.5 + libmatroska v1.7.1
Attachments                              : arial.ttf / arialbd.ttf / comic.ttf / comicbd.ttf / CONSOLA.ttf / CONSOLAB.ttf / Roboto-Medium.ttf / Roboto-MediumItalic.ttf / times.ttf / timesbd.ttf / trebuc.ttf / trebucbd.ttf / verdana.ttf / verdanab.ttf

Video
ID                                       : 1
Format                                   : AV1
Format/Info                              : AOMedia Video 1
Format profile                           : Main@L4.0
Codec ID                                 : V_AV1
Duration                                 : 23 min 40 s
Bit rate                                 : 1 359 kb/s
Width                                    : 1 920 pixels
Height                                   : 1 080 pixels
Display aspect ratio                     : 16:9
Frame rate mode                          : Constant
Frame rate                               : 23.976 (24000/1001) FPS
Color space                              : YUV
Chroma subsampling                       : 4:2:0
Bit depth                                : 10 bits
Bits/(Pixel*Frame)                       : 0.027
Stream size                              : 230 MiB (89%)
Default                                  : Yes
Forced                                   : No
Color range                              : Limited

Audio
ID                                       : 2
Format                                   : AAC LC
Format/Info                              : Advanced Audio Codec Low Complexity
Codec ID                                 : A_AAC-2
Duration                                 : 23 min 40 s
Bit rate                                 : 128 kb/s
Channel(s)                               : 2 channels
Channel layout                           : L R
Sampling rate                            : 44.1 kHz
Frame rate                               : 43.066 FPS (1024 SPF)
Compression mode                         : Lossy
Stream size                              : 21.7 MiB (8%)
Language                                 : Japanese
Default                                  : No
Forced                                   : No

Text
ID                                       : 3
Format                                   : ASS
Codec ID                                 : S_TEXT/ASS
Codec ID/Info                            : Advanced Sub Station Alpha
Duration                                 : 21 min 54 s
Bit rate                                 : 143 b/s
Frame rate                               : 0.261 FPS
Count of elements                        : 343
Compression mode                         : Lossless
Stream size                              : 23.1 KiB (0%)
Title                                    : English subs
Language                                 : English
Default                                  : Yes
Forced                                   : No

Other Files in this Torrent
[DarkLegends] Solo Leveling - 01 [1080p][AV1 10bit][J2B].mkv
beta
Anime DDL+NZB mirror
Current Time: 14/06/2024 09:19



About/FAQs

Discord