File Size335.9 MB (352,207,100 bytes)
DownloadClickNUpload | DailyUploads | DownloadGG | GoFile | KrakenFiles | MdiaLoad | MultiUp
  • BdUpload
  • DownAce
  • Fichier
  • FileCloud
  • Filerio
  • FilesCdn
  • IndiShare
  • Kbagi
  • Turbobit
  • UpToBox
  • Uppit
| Uppit
HashesCRC32: 6937A527, MD5: F9371DAFCB0F71A83ACFE62B32C19220, SHA1: E4E4DA3DF7923B514789A8ED3513AF0F2CB6AED2, SHA256: 185D2DCDDCE2C27927BE272DAEB247798AA20A1A7E0FA1AA9D385EE852401E42, ED2K: BEAEA001F39F2C94FFA984976A5A10C4
Screenshots
screenshotscreenshotscreenshotscreenshotscreenshot
SubtitlesAll Attachments | English subs [eng, ASS]
Additional Info
General
Unique ID                                : 215658957177007243835591672597069976074 (0xA23E6782D7C0041475062955F7BC520A)
Complete name                            : [DarkLegends] Solo Leveling - 04 [1080p][AV1 10bit][J2B].mkv
Format                                   : Matroska
Format version                           : Version 4
File size                                : 336 MiB
Duration                                 : 23 min 40 s
Overall bit rate                         : 1 984 kb/s
Frame rate                               : 23.976 FPS
Encoded date                             : 2024-03-19 00:42:33 UTC
Writing application                      : mkvmerge v83.0 ('Circle Of Friends') 64-bit
Writing library                          : libebml v1.4.5 + libmatroska v1.7.1
Attachments                              : arial.ttf / arialbd.ttf / comic.ttf / comicbd.ttf / CONSOLA.ttf / CONSOLAB.ttf / Roboto-Medium.ttf / Roboto-MediumItalic.ttf / times.ttf / timesbd.ttf / trebuc.ttf / trebucbd.ttf / verdana.ttf / verdanab.ttf

Video
ID                                       : 1
Format                                   : AV1
Format/Info                              : AOMedia Video 1
Format profile                           : Main@L4.0
Codec ID                                 : V_AV1
Duration                                 : 23 min 40 s
Bit rate                                 : 1 817 kb/s
Width                                    : 1 920 pixels
Height                                   : 1 080 pixels
Display aspect ratio                     : 16:9
Frame rate mode                          : Constant
Frame rate                               : 23.976 (24000/1001) FPS
Color space                              : YUV
Chroma subsampling                       : 4:2:0
Bit depth                                : 10 bits
Bits/(Pixel*Frame)                       : 0.037
Stream size                              : 308 MiB (92%)
Default                                  : Yes
Forced                                   : No
Color range                              : Limited

Audio
ID                                       : 2
Format                                   : AAC LC
Format/Info                              : Advanced Audio Codec Low Complexity
Codec ID                                 : A_AAC-2
Duration                                 : 23 min 40 s
Bit rate                                 : 128 kb/s
Channel(s)                               : 2 channels
Channel layout                           : L R
Sampling rate                            : 44.1 kHz
Frame rate                               : 43.066 FPS (1024 SPF)
Compression mode                         : Lossy
Stream size                              : 21.7 MiB (6%)
Language                                 : Japanese
Default                                  : No
Forced                                   : No

Text
ID                                       : 3
Format                                   : ASS
Codec ID                                 : S_TEXT/ASS
Codec ID/Info                            : Advanced Sub Station Alpha
Duration                                 : 21 min 41 s
Bit rate                                 : 103 b/s
Frame rate                               : 0.178 FPS
Count of elements                        : 232
Compression mode                         : Lossless
Stream size                              : 16.4 KiB (0%)
Title                                    : English subs
Language                                 : English
Default                                  : Yes
Forced                                   : No

Other Files in this Torrent
[DarkLegends] Solo Leveling - 04 [1080p][AV1 10bit][J2B].mkv
beta
Anime DDL+NZB mirror
Current Time: 14/06/2024 09:10



About/FAQs

Discord