File Size393.5 MB (412,593,225 bytes)
DownloadClickNUpload | DailyUploads | DownloadGG | GoFile | KrakenFiles | MdiaLoad | MultiUp
  • BdUpload
  • DownAce
  • Fichier
  • FileCloud
  • Filerio
  • FilesCdn
  • IndiShare
  • Kbagi
  • Turbobit
  • UpToBox
  • Uppit
| Uppit
HashesCRC32: E47151A8, MD5: A0EA3265EF1621D04037F68FFD0B3CCB, SHA1: 6F8F39315AAF86CADD72EC15E25C7622F4AFA8D9, SHA256: 8F19434D05427D6F63502E3DE419B286223361005F0F1BA1D5B97ABD4A88B5BA, ED2K: 48663EBAD1F9C216E37D88B9A6927DCF
Screenshots
screenshotscreenshotscreenshotscreenshotscreenshot
SubtitlesAll Attachments | English subs [eng, ASS]
Additional Info
General
Unique ID                                : 299640508612050233125803140673844289796 (0xE16CA9ADD55879E76002C88B769C2104)
Complete name                            : [DarkLegends] Solo Leveling - 03 [1080p][AV1 10bit][J2B].mkv
Format                                   : Matroska
Format version                           : Version 4
File size                                : 393 MiB
Duration                                 : 23 min 40 s
Overall bit rate                         : 2 324 kb/s
Frame rate                               : 23.976 FPS
Encoded date                             : 2024-03-19 00:10:39 UTC
Writing application                      : mkvmerge v83.0 ('Circle Of Friends') 64-bit
Writing library                          : libebml v1.4.5 + libmatroska v1.7.1
Attachments                              : arial.ttf / arialbd.ttf / comic.ttf / comicbd.ttf / CONSOLA.ttf / CONSOLAB.ttf / Roboto-Medium.ttf / Roboto-MediumItalic.ttf / times.ttf / timesbd.ttf / trebuc.ttf / trebucbd.ttf / verdana.ttf / verdanab.ttf

Video
ID                                       : 1
Format                                   : AV1
Format/Info                              : AOMedia Video 1
Format profile                           : Main@L4.0
Codec ID                                 : V_AV1
Duration                                 : 23 min 40 s
Bit rate                                 : 2 158 kb/s
Width                                    : 1 920 pixels
Height                                   : 1 080 pixels
Display aspect ratio                     : 16:9
Frame rate mode                          : Constant
Frame rate                               : 23.976 (24000/1001) FPS
Color space                              : YUV
Chroma subsampling                       : 4:2:0
Bit depth                                : 10 bits
Bits/(Pixel*Frame)                       : 0.043
Stream size                              : 365 MiB (93%)
Default                                  : Yes
Forced                                   : No
Color range                              : Limited

Audio
ID                                       : 2
Format                                   : AAC LC
Format/Info                              : Advanced Audio Codec Low Complexity
Codec ID                                 : A_AAC-2
Duration                                 : 23 min 40 s
Bit rate                                 : 128 kb/s
Channel(s)                               : 2 channels
Channel layout                           : L R
Sampling rate                            : 44.1 kHz
Frame rate                               : 43.066 FPS (1024 SPF)
Compression mode                         : Lossy
Stream size                              : 21.7 MiB (6%)
Language                                 : Japanese
Default                                  : No
Forced                                   : No

Text
ID                                       : 3
Format                                   : ASS
Codec ID                                 : S_TEXT/ASS
Codec ID/Info                            : Advanced Sub Station Alpha
Duration                                 : 21 min 34 s
Bit rate                                 : 114 b/s
Frame rate                               : 0.196 FPS
Count of elements                        : 254
Compression mode                         : Lossless
Stream size                              : 18.2 KiB (0%)
Title                                    : English subs
Language                                 : English
Default                                  : Yes
Forced                                   : No

Other Files in this Torrent
[DarkLegends] Solo Leveling - 03 [1080p][AV1 10bit][J2B].mkv
beta
Anime DDL+NZB mirror
Current Time: 14/06/2024 08:34



About/FAQs

Discord