File Size293.2 MB (307,412,457 bytes)
DownloadClickNUpload | DailyUploads | DownloadGG | GoFile | KrakenFiles | MdiaLoad | MultiUp
  • BdUpload
  • DownAce
  • Fichier
  • FileCloud
  • Filerio
  • FilesCdn
  • IndiShare
  • Kbagi
  • Turbobit
  • UpToBox
  • Uppit
| Uppit
HashesCRC32: 9A3E83C5, MD5: E68A816949F198E7E602F10A45C91C7E, SHA1: 5829619AE7947D66ED42A6C9DB0184C3875CB224, SHA256: EA58BF1937D19E03A7E2CCE04E0C965D402F76AEBAFE1D68BEC8AF534341BCD8, ED2K: 78425C70FD372E274B1611A31CC7B2F4
Screenshots
screenshotscreenshotscreenshotscreenshotscreenshot
SubtitlesAll Attachments | English subs [eng, ASS]
Additional Info
General
Unique ID                                : 135008712356389796984071230375550916593 (0x6591BB70ACCA07565F24CC7C16CE17F1)
Complete name                            : [DarkLegends] Solo Leveling - 02 [1080p][AV1 10bit][J2B].mkv
Format                                   : Matroska
Format version                           : Version 4
File size                                : 293 MiB
Duration                                 : 23 min 37 s
Overall bit rate                         : 1 735 kb/s
Frame rate                               : 23.976 FPS
Encoded date                             : 2024-03-18 23:38:44 UTC
Writing application                      : mkvmerge v83.0 ('Circle Of Friends') 64-bit
Writing library                          : libebml v1.4.5 + libmatroska v1.7.1
Attachments                              : arial.ttf / arialbd.ttf / comic.ttf / comicbd.ttf / CONSOLA.ttf / CONSOLAB.ttf / Roboto-Medium.ttf / Roboto-MediumItalic.ttf / times.ttf / timesbd.ttf / trebuc.ttf / trebucbd.ttf / verdana.ttf / verdanab.ttf

Video
ID                                       : 1
Format                                   : AV1
Format/Info                              : AOMedia Video 1
Format profile                           : Main@L4.0
Codec ID                                 : V_AV1
Duration                                 : 23 min 37 s
Bit rate                                 : 1 568 kb/s
Width                                    : 1 920 pixels
Height                                   : 1 080 pixels
Display aspect ratio                     : 16:9
Frame rate mode                          : Constant
Frame rate                               : 23.976 (24000/1001) FPS
Color space                              : YUV
Chroma subsampling                       : 4:2:0
Bit depth                                : 10 bits
Bits/(Pixel*Frame)                       : 0.032
Stream size                              : 265 MiB (90%)
Default                                  : Yes
Forced                                   : No
Color range                              : Limited

Audio
ID                                       : 2
Format                                   : AAC LC
Format/Info                              : Advanced Audio Codec Low Complexity
Codec ID                                 : A_AAC-2
Duration                                 : 23 min 37 s
Bit rate                                 : 128 kb/s
Channel(s)                               : 2 channels
Channel layout                           : L R
Sampling rate                            : 44.1 kHz
Frame rate                               : 43.066 FPS (1024 SPF)
Compression mode                         : Lossy
Stream size                              : 21.6 MiB (7%)
Language                                 : Japanese
Default                                  : No
Forced                                   : No

Text
ID                                       : 3
Format                                   : ASS
Codec ID                                 : S_TEXT/ASS
Codec ID/Info                            : Advanced Sub Station Alpha
Duration                                 : 21 min 45 s
Bit rate                                 : 127 b/s
Frame rate                               : 0.234 FPS
Count of elements                        : 306
Compression mode                         : Lossless
Stream size                              : 20.3 KiB (0%)
Title                                    : English subs
Language                                 : English
Default                                  : Yes
Forced                                   : No

Other Files in this Torrent
[DarkLegends] Solo Leveling - 02 [1080p][AV1 10bit][J2B].mkv
beta
Anime DDL+NZB mirror
Current Time: 14/06/2024 08:24



About/FAQs

Discord