[CuaP] Naruto (2002) - 043 [800p] [BD HEVC 10bits].mkv


File Size140.8 MB (147,685,846 bytes)
DownloadAnonFiles | ClickNUpload | DropAPK | Free | MultiUp
  • BdUpload
  • DownAce
  • Fichier
  • FileCloud
  • Filerio
  • FilesCdn
  • IndiShare
  • Kbagi
  • Turbobit
  • UpToBox
  • Uppit
| SolidFiles | ZippyShare
HashesCRC32: 573DADD0, MD5: C3D2C18846785DB3C1D9048208BC128E, SHA1: C7BBAFCD1ABD6402EAF5732CDEF0E9815FCEF39B, SHA256: 2E17EDBCDD6696C32350BB64A8D493930A2D725E3B763042FD4D06E9EC0B0D9E, ED2K: 6FFFA16871CCE7EC3F02017F177F0CF6
Screenshots
screenshotscreenshotscreenshotscreenshotscreenshot
SubtitlesAll Attachments | English Subtitle [eng, ASS]
Additional Info
General
Unique ID                                : 312571287338614098612226592765546547293 (0xEB270A4AD10B3BCC935DC6ED0D63485D)
Complete name                            : [CuaP] Naruto (2002) - 043 [800p] [BD HEVC 10bits].mkv
Format                                   : Matroska
Format version                           : Version 4
File size                                : 141 MiB
Duration                                 : 23 min 7 s
Overall bit rate                         : 852 kb/s
Encoded date                             : UTC 2020-12-20 11:11:36
Writing application                      : mkvmerge v48.0.0 ('Fortress Around Your Heart') 64-bit
Writing library                          : libebml v1.4.0 + libmatroska v1.6.0 / Lavf57.83.100

Video
ID                                       : 1
Format                                   : HEVC
Format/Info                              : High Efficiency Video Coding
Format profile                           : Main 10@L3.1@Main
Codec ID                                 : V_MPEGH/ISO/HEVC
Duration                                 : 23 min 7 s
Bit rate                                 : 626 kb/s
Width                                    : 1 056 pixels
Height                                   : 800 pixels
Display aspect ratio                     : 4:3
Frame rate mode                          : Constant
Frame rate                               : 23.976 (24000/1001) FPS
Color space                              : YUV
Chroma subsampling                       : 4:2:0
Bit depth                                : 10 bits
Bits/(Pixel*Frame)                       : 0.031
Stream size                              : 103 MiB (73%)
Writing library                          : Lavc57.107.100 hevc_nvenc
Language                                 : Japanese
Default                                  : Yes
Forced                                   : No

Audio
ID                                       : 2
Format                                   : AC-3
Format/Info                              : Audio Coding 3
Commercial name                          : Dolby Digital
Codec ID                                 : A_AC3
Duration                                 : 23 min 7 s
Bit rate mode                            : Constant
Bit rate                                 : 224 kb/s
Channel(s)                               : 2 channels
Channel layout                           : L R
Sampling rate                            : 48.0 kHz
Frame rate                               : 31.250 FPS (1536 SPF)
Bit depth                                : 16 bits
Compression mode                         : Lossy
Stream size                              : 37.0 MiB (26%)
Title                                    : Japanese BD Audio
Language                                 : Japanese
Service kind                             : Complete Main
Default                                  : Yes
Forced                                   : No

Text
ID                                       : 3
Format                                   : ASS
Codec ID                                 : S_TEXT/ASS
Codec ID/Info                            : Advanced Sub Station Alpha
Duration                                 : 22 min 57 s
Bit rate                                 : 104 b/s
Count of elements                        : 343
Compression mode                         : Lossless
Stream size                              : 17.5 KiB (0%)
Title                                    : English Subtitle
Writing library                          : Lavc57.107.100 ssa
Language                                 : English
Default                                  : Yes
Forced                                   : No

Other Files in this Torrent
[CuaP] Naruto (2002) - 043 [800p] [BD HEVC 10bits].mkv
beta
Anime DDL+NZB mirror
Current Time: 26/09/2021 04:04



About/FAQs

Discord