[CuaP] Naruto (2002) - 033 [800p] [BD HEVC 10bits].mkv


File Size175.0 MB (183,532,937 bytes)
DownloadAnonFiles | ClickNUpload | DropAPK | Free | MultiUp
  • BdUpload
  • DownAce
  • Fichier
  • FileCloud
  • Filerio
  • FilesCdn
  • IndiShare
  • Kbagi
  • Turbobit
  • UpToBox
  • Uppit
| SolidFiles | ZippyShare
HashesCRC32: 438A21FC, MD5: 424203CA225F9B4A512FA801FE8A9028, SHA1: A87A8BBA85B68A1183338ED48187851CC8F7A4D1, SHA256: 00F86D5B4DD917E6D06030FDE72A0738D91757B72AC0C53C0DCBFA3DC7E20C6A, ED2K: 3AB3A38652CC532C40F888535190F0D8
Screenshots
screenshotscreenshotscreenshotscreenshotscreenshot
SubtitlesAll Attachments | English Subtitle [eng, ASS]
Additional Info
General
Unique ID                                : 264023632289660839912500036056084332752 (0xC6A11A19158CFD84CB0389BEB86B40D0)
Complete name                            : [CuaP] Naruto (2002) - 033 [800p] [BD HEVC 10bits].mkv
Format                                   : Matroska
Format version                           : Version 4
File size                                : 175 MiB
Duration                                 : 23 min 6 s
Overall bit rate                         : 1 059 kb/s
Encoded date                             : UTC 2020-12-20 11:07:22
Writing application                      : mkvmerge v48.0.0 ('Fortress Around Your Heart') 64-bit
Writing library                          : libebml v1.4.0 + libmatroska v1.6.0 / Lavf57.83.100

Video
ID                                       : 1
Format                                   : HEVC
Format/Info                              : High Efficiency Video Coding
Format profile                           : Main 10@L3.1@Main
Codec ID                                 : V_MPEGH/ISO/HEVC
Duration                                 : 23 min 6 s
Bit rate                                 : 833 kb/s
Width                                    : 1 056 pixels
Height                                   : 800 pixels
Display aspect ratio                     : 4:3
Frame rate mode                          : Constant
Frame rate                               : 23.976 (24000/1001) FPS
Color space                              : YUV
Chroma subsampling                       : 4:2:0
Bit depth                                : 10 bits
Bits/(Pixel*Frame)                       : 0.041
Stream size                              : 138 MiB (79%)
Writing library                          : Lavc57.107.100 hevc_nvenc
Language                                 : Japanese
Default                                  : Yes
Forced                                   : No

Audio
ID                                       : 2
Format                                   : AC-3
Format/Info                              : Audio Coding 3
Commercial name                          : Dolby Digital
Codec ID                                 : A_AC3
Duration                                 : 23 min 6 s
Bit rate mode                            : Constant
Bit rate                                 : 224 kb/s
Channel(s)                               : 2 channels
Channel layout                           : L R
Sampling rate                            : 48.0 kHz
Frame rate                               : 31.250 FPS (1536 SPF)
Bit depth                                : 16 bits
Compression mode                         : Lossy
Stream size                              : 37.0 MiB (21%)
Title                                    : Japanese BD Audio
Language                                 : Japanese
Service kind                             : Complete Main
Default                                  : Yes
Forced                                   : No

Text
ID                                       : 3
Format                                   : ASS
Codec ID                                 : S_TEXT/ASS
Codec ID/Info                            : Advanced Sub Station Alpha
Duration                                 : 22 min 55 s
Bit rate                                 : 87 b/s
Count of elements                        : 292
Compression mode                         : Lossless
Stream size                              : 14.6 KiB (0%)
Title                                    : English Subtitle
Writing library                          : Lavc57.107.100 ssa
Language                                 : English
Default                                  : Yes
Forced                                   : No

Other Files in this Torrent
[CuaP] Naruto (2002) - 033 [800p] [BD HEVC 10bits].mkv
beta
Anime DDL+NZB mirror
Current Time: 26/09/2021 02:42



About/FAQs

Discord