[CuaP] Naruto (2002) - 039 [800p] [BD HEVC 10bits].mkv


File Size146.3 MB (153,458,908 bytes)
DownloadAnonFiles | ClickNUpload | DropAPK | Free | MultiUp
  • BdUpload
  • DownAce
  • Fichier
  • FileCloud
  • Filerio
  • FilesCdn
  • IndiShare
  • Kbagi
  • Turbobit
  • UpToBox
  • Uppit
| SolidFiles | ZippyShare
HashesCRC32: A8FAE4AA, MD5: FC407F2330427CD0D31014DE7E974BB0, SHA1: A92578EEAA41FA3E68162D881337A05C05F3BEDE, SHA256: D117FB7331E498A2E1FFF61C84159CAF47EB7054CC6833DCA537B9A7FEB611B7, ED2K: DE1EA0B381A6DBFED4E97EC6CEB6BE9E
Screenshots
screenshotscreenshotscreenshotscreenshotscreenshot
SubtitlesAll Attachments | English Subtitle [eng, ASS]
Additional Info
General
Unique ID                                : 322452431106063006160027596444905831377 (0xF296144B16B6270F4D27329A4CECFBD1)
Complete name                            : [CuaP] Naruto (2002) - 039 [800p] [BD HEVC 10bits].mkv
Format                                   : Matroska
Format version                           : Version 4
File size                                : 146 MiB
Duration                                 : 23 min 6 s
Overall bit rate                         : 886 kb/s
Encoded date                             : UTC 2020-12-20 11:10:39
Writing application                      : mkvmerge v48.0.0 ('Fortress Around Your Heart') 64-bit
Writing library                          : libebml v1.4.0 + libmatroska v1.6.0 / Lavf57.83.100

Video
ID                                       : 1
Format                                   : HEVC
Format/Info                              : High Efficiency Video Coding
Format profile                           : Main 10@L3.1@Main
Codec ID                                 : V_MPEGH/ISO/HEVC
Duration                                 : 23 min 6 s
Bit rate                                 : 660 kb/s
Width                                    : 1 056 pixels
Height                                   : 800 pixels
Display aspect ratio                     : 4:3
Frame rate mode                          : Constant
Frame rate                               : 23.976 (24000/1001) FPS
Color space                              : YUV
Chroma subsampling                       : 4:2:0
Bit depth                                : 10 bits
Bits/(Pixel*Frame)                       : 0.033
Stream size                              : 109 MiB (74%)
Writing library                          : Lavc57.107.100 hevc_nvenc
Language                                 : Japanese
Default                                  : Yes
Forced                                   : No

Audio
ID                                       : 2
Format                                   : AC-3
Format/Info                              : Audio Coding 3
Commercial name                          : Dolby Digital
Codec ID                                 : A_AC3
Duration                                 : 23 min 6 s
Bit rate mode                            : Constant
Bit rate                                 : 224 kb/s
Channel(s)                               : 2 channels
Channel layout                           : L R
Sampling rate                            : 48.0 kHz
Frame rate                               : 31.250 FPS (1536 SPF)
Bit depth                                : 16 bits
Compression mode                         : Lossy
Stream size                              : 37.0 MiB (25%)
Title                                    : Japanese BD Audio
Language                                 : Japanese
Service kind                             : Complete Main
Default                                  : Yes
Forced                                   : No

Text
ID                                       : 3
Format                                   : ASS
Codec ID                                 : S_TEXT/ASS
Codec ID/Info                            : Advanced Sub Station Alpha
Duration                                 : 22 min 56 s
Bit rate                                 : 83 b/s
Count of elements                        : 246
Compression mode                         : Lossless
Stream size                              : 14.1 KiB (0%)
Title                                    : English Subtitle
Writing library                          : Lavc57.107.100 ssa
Language                                 : English
Default                                  : Yes
Forced                                   : No

Other Files in this Torrent
[CuaP] Naruto (2002) - 039 [800p] [BD HEVC 10bits].mkv
beta
Anime DDL+NZB mirror
Current Time: 26/09/2021 03:16



About/FAQs

Discord