[CuaP] Naruto (2002) - 028 [800p] [BD HEVC 10bits].mkv


File Size141.8 MB (148,660,719 bytes)
DownloadAnonFiles | ClickNUpload | DropAPK | Free | MultiUp
  • BdUpload
  • DownAce
  • Fichier
  • FileCloud
  • Filerio
  • FilesCdn
  • IndiShare
  • Kbagi
  • Turbobit
  • UpToBox
  • Uppit
| SolidFiles | ZippyShare
HashesCRC32: 27EC6BE0, MD5: E376B0A73D6CDE4B5B14BB3850DC8E8E, SHA1: EAFEDC61E0528D5D24F22F17D473F93130803D55, SHA256: CB31F75B928B2AB247C832C112314C82A68725CF2D8F6F871422C6D40D9B09A4, ED2K: 409623FA1410CDE2F663A6BDDB76BBB5
Screenshots
screenshotscreenshotscreenshotscreenshotscreenshot
SubtitlesAll Attachments | English Subtitle [eng, ASS]
Additional Info
General
Unique ID                                : 267175826806990693189074774809889832075 (0xC900314969003199B067F8A0E7957C8B)
Complete name                            : [CuaP] Naruto (2002) - 028 [800p] [BD HEVC 10bits].mkv
Format                                   : Matroska
Format version                           : Version 4
File size                                : 142 MiB
Duration                                 : 23 min 6 s
Overall bit rate                         : 857 kb/s
Encoded date                             : UTC 2020-12-20 11:05:35
Writing application                      : mkvmerge v48.0.0 ('Fortress Around Your Heart') 64-bit
Writing library                          : libebml v1.4.0 + libmatroska v1.6.0 / Lavf57.83.100

Video
ID                                       : 1
Format                                   : HEVC
Format/Info                              : High Efficiency Video Coding
Format profile                           : Main 10@L3.1@Main
Codec ID                                 : V_MPEGH/ISO/HEVC
Duration                                 : 23 min 6 s
Bit rate                                 : 632 kb/s
Width                                    : 1 056 pixels
Height                                   : 800 pixels
Display aspect ratio                     : 4:3
Frame rate mode                          : Constant
Frame rate                               : 23.976 (24000/1001) FPS
Color space                              : YUV
Chroma subsampling                       : 4:2:0
Bit depth                                : 10 bits
Bits/(Pixel*Frame)                       : 0.031
Stream size                              : 104 MiB (74%)
Writing library                          : Lavc57.107.100 hevc_nvenc
Language                                 : Japanese
Default                                  : Yes
Forced                                   : No

Audio
ID                                       : 2
Format                                   : AC-3
Format/Info                              : Audio Coding 3
Commercial name                          : Dolby Digital
Codec ID                                 : A_AC3
Duration                                 : 23 min 6 s
Bit rate mode                            : Constant
Bit rate                                 : 224 kb/s
Channel(s)                               : 2 channels
Channel layout                           : L R
Sampling rate                            : 48.0 kHz
Frame rate                               : 31.250 FPS (1536 SPF)
Bit depth                                : 16 bits
Compression mode                         : Lossy
Stream size                              : 37.0 MiB (26%)
Title                                    : Japanese BD Audio
Language                                 : Japanese
Service kind                             : Complete Main
Default                                  : Yes
Forced                                   : No

Text
ID                                       : 3
Format                                   : ASS
Codec ID                                 : S_TEXT/ASS
Codec ID/Info                            : Advanced Sub Station Alpha
Duration                                 : 22 min 55 s
Bit rate                                 : 84 b/s
Count of elements                        : 269
Compression mode                         : Lossless
Stream size                              : 14.2 KiB (0%)
Title                                    : English Subtitle
Writing library                          : Lavc57.107.100 ssa
Language                                 : English
Default                                  : Yes
Forced                                   : No

Other Files in this Torrent
[CuaP] Naruto (2002) - 028 [800p] [BD HEVC 10bits].mkv
beta
Anime DDL+NZB mirror
Current Time: 26/09/2021 04:11



About/FAQs

Discord