[CuaP] Naruto (2002) - 037 [800p] [BD HEVC 10bits].mkv


File Size130.6 MB (136,949,953 bytes)
DownloadAnonFiles | ClickNUpload | DropAPK | Free | MultiUp
  • BdUpload
  • DownAce
  • Fichier
  • FileCloud
  • Filerio
  • FilesCdn
  • IndiShare
  • Kbagi
  • Turbobit
  • UpToBox
  • Uppit
| SolidFiles | ZippyShare
HashesCRC32: 10CE0569, MD5: CD45453F489ABF6B58F769733200E089, SHA1: CA770467F7816B2985BF085F1989812B5871B2A8, SHA256: B858A4B0FC34DEF846FF4A9B3C38724CBF371D2CC7B2A1D382F43FD5DBAB5D48, ED2K: 98096AD0E8D0800B9D5D940CF22545EF
Screenshots
screenshotscreenshotscreenshotscreenshotscreenshot
SubtitlesAll Attachments | English Subtitle [eng, ASS]
Additional Info
General
Unique ID                                : 47545780888641431332757333357957760320 (0x23C4FBFC052274A6FF50F405F7B04540)
Complete name                            : [CuaP] Naruto (2002) - 037 [800p] [BD HEVC 10bits].mkv
Format                                   : Matroska
Format version                           : Version 4
File size                                : 131 MiB
Duration                                 : 23 min 7 s
Overall bit rate                         : 790 kb/s
Encoded date                             : UTC 2020-12-20 11:10:11
Writing application                      : mkvmerge v48.0.0 ('Fortress Around Your Heart') 64-bit
Writing library                          : libebml v1.4.0 + libmatroska v1.6.0 / Lavf57.83.100

Video
ID                                       : 1
Format                                   : HEVC
Format/Info                              : High Efficiency Video Coding
Format profile                           : Main 10@L3.1@Main
Codec ID                                 : V_MPEGH/ISO/HEVC
Duration                                 : 23 min 7 s
Bit rate                                 : 564 kb/s
Width                                    : 1 056 pixels
Height                                   : 800 pixels
Display aspect ratio                     : 4:3
Frame rate mode                          : Constant
Frame rate                               : 23.976 (24000/1001) FPS
Color space                              : YUV
Chroma subsampling                       : 4:2:0
Bit depth                                : 10 bits
Bits/(Pixel*Frame)                       : 0.028
Stream size                              : 93.2 MiB (71%)
Writing library                          : Lavc57.107.100 hevc_nvenc
Language                                 : Japanese
Default                                  : Yes
Forced                                   : No

Audio
ID                                       : 2
Format                                   : AC-3
Format/Info                              : Audio Coding 3
Commercial name                          : Dolby Digital
Codec ID                                 : A_AC3
Duration                                 : 23 min 7 s
Bit rate mode                            : Constant
Bit rate                                 : 224 kb/s
Channel(s)                               : 2 channels
Channel layout                           : L R
Sampling rate                            : 48.0 kHz
Frame rate                               : 31.250 FPS (1536 SPF)
Bit depth                                : 16 bits
Compression mode                         : Lossy
Stream size                              : 37.0 MiB (28%)
Title                                    : Japanese BD Audio
Language                                 : Japanese
Service kind                             : Complete Main
Default                                  : Yes
Forced                                   : No

Text
ID                                       : 3
Format                                   : ASS
Codec ID                                 : S_TEXT/ASS
Codec ID/Info                            : Advanced Sub Station Alpha
Duration                                 : 22 min 56 s
Bit rate                                 : 112 b/s
Count of elements                        : 317
Compression mode                         : Lossless
Stream size                              : 18.9 KiB (0%)
Title                                    : English Subtitle
Writing library                          : Lavc57.107.100 ssa
Language                                 : English
Default                                  : Yes
Forced                                   : No

Other Files in this Torrent
[CuaP] Naruto (2002) - 037 [800p] [BD HEVC 10bits].mkv
beta
Anime DDL+NZB mirror
Current Time: 26/09/2021 04:33



About/FAQs

Discord