[Cthuko] One Punch Man - 12 [720p H264 AAC][FF33154D].mkv


File Size555.5 MB (582,467,312 bytes)
DownloadGo4Up | Jheberg | MultiUp | OpenLoad | UsersCloud
Sendspace: Part1, Part2
SolidFiles: Part1, Part2
HashesCRC32: FF33154D, MD5: 945B6A9597F8B876831053943AA34410, SHA1: 6901BF4FDD5AA5B51A0F8C7D5AB15A5B1EBC3F38, SHA256: 56F498468B17E0E769C9999D3906C4DC3D0021E165FB292CF17045A9216D0505, ED2K: 50CBEA763644D771DDC080DEF4608ADA
Screenshots
screenshotscreenshotscreenshotscreenshotscreenshot
SubtitlesAll Attachments | Cthuko [eng, ASS]
Additional Info
General
Unique ID                                : 215538132091325804027582781030153181658 (0xA227225FDBFE453FB7FDD0350F29D9DA)
Complete name                            : [Cthuko] One Punch Man - 12 [720p H264 AAC][FF33154D].mkv
Format                                   : Matroska
Format version                           : Version 4 / Version 2
File size                                : 555 MiB
Duration                                 : 23 min 59 s
Overall bit rate                         : 3 236 kb/s
Encoded date                             : UTC 2016-12-25 07:37:12
Writing application                      : mkvmerge v9.6.0 ('Slave To Your Mind') 64bit
Writing library                          : libebml v1.3.4 + libmatroska v1.4.5
Attachments                              : SWZ721H.ttf / The Best Night.ttf / Ubuntu-Bold.ttf / Ubuntu-BoldItalic.ttf / AdobeHeiti-Kami.ttf / Brush Strokes_0.ttf

Video
ID                                       : 1
Format                                   : AVC
Format/Info                              : Advanced Video Codec
Format profile                           : High 10@L5
Format settings, CABAC                   : Yes
Format settings, ReFrames                : 16 frames
Codec ID                                 : V_MPEG4/ISO/AVC
Duration                                 : 23 min 59 s
Bit rate                                 : 2 990 kb/s
Width                                    : 1 280 pixels
Height                                   : 720 pixels
Display aspect ratio                     : 16:9
Frame rate mode                          : Constant
Frame rate                               : 23.976 (24000/1001) FPS
Color space                              : YUV
Chroma subsampling                       : 4:2:0
Bit depth                                : 10 bits
Scan type                                : Progressive
Bits/(Pixel*Frame)                       : 0.135
Stream size                              : 513 MiB (92%)
Title                                    : H264
Writing library                          : x264 core 142 r2431+42 c69a006 tMod [10-bit@all X86_64]
Encoding settings                        : cabac=1 / ref=16 / deblock=1:-1:-1 / analyse=0x3:0x133 / me=umh / subme=10 / psy=1 / fade_compensate=0.65 / psy_rd=0.79:0.00 / mixed_ref=1 / me_range=24 / chroma_me=1 / trellis=2 / 8x8dct=1 / cqm=0 / deadzone=21,11 / fast_pskip=1 / chroma_qp_offset=-2 / threads=12 / lookahead_threads=3 / sliced_threads=0 / nr=0 / decimate=1 / interlaced=0 / bluray_compat=0 / constrained_intra=0 / fgo=0 / bframes=16 / b_pyramid=2 / b_adapt=2 / b_bias=0 / direct=3 / weightb=1 / open_gop=0 / weightp=2 / keyint=250 / keyint_min=23 / scenecut=40 / intra_refresh=0 / rc_lookahead=60 / rc=crf / mbtree=1 / crf=16.0000 / qcomp=0.77 / qpmin=0:0:0 / qpmax=81:81:81 / qpstep=4 / ip_ratio=1.40 / aq=3:0.87 / aq-sensitivity=10.00 / aq-factor=1.00:1.00:1.00 / aq2=0 / aq3=0
Language                                 : Japanese
Default                                  : Yes
Forced                                   : No
Color range                              : Limited
Matrix coefficients                      : BT.709

Audio
ID                                       : 2
Format                                   : AAC
Format/Info                              : Advanced Audio Codec
Format profile                           : LC
Codec ID                                 : A_AAC
Duration                                 : 23 min 59 s
Bit rate                                 : 192 kb/s
Channel(s)                               : 2 channels
Channel positions                        : Front: L R
Sampling rate                            : 48.0 kHz
Frame rate                               : 46.875 FPS (1024 spf)
Compression mode                         : Lossy
Stream size                              : 32.4 MiB (6%)
Title                                    : AAC
Language                                 : Japanese
Default                                  : Yes
Forced                                   : No

Text
ID                                       : 3
Format                                   : ASS
Codec ID                                 : S_TEXT/ASS
Codec ID/Info                            : Advanced Sub Station Alpha
Duration                                 : 23 min 18 s
Bit rate                                 : 39.1 kb/s
Count of elements                        : 45708
Compression mode                         : Lossless
Stream size                              : 6.51 MiB (1%)
Title                                    : Cthuko
Language                                 : English
Default                                  : Yes
Forced                                   : No

Menu
00:00:00.033                             : en:Part A
00:14:00.980                             : en:Part B
00:21:03.400                             : en:Ending
00:22:42.790                             : en:Epilogue

Other Files in this Torrent
[Cthuko] One Punch Man - 12 [720p H264 AAC][FF33154D].mkv
beta
Anime DDL+NZB mirror
Current Time: 27/11/2022 16:48



About/FAQs

Discord