[Cthuko] One Punch Man - 03 [720p H264 AAC][7BDEEF12].mkv


File Size589.0 MB (617,659,883 bytes)
DownloadGo4Up | Jheberg | MultiUp | OpenLoad | UsersCloud
Sendspace: Part1, Part2
SolidFiles: Part1, Part2
HashesCRC32: 7BDEEF12, MD5: 58DF80F513FDD3A14CD51692939C2ECB, SHA1: A0A35A06FEAA137CEDF787B80AB7C254A001B814, SHA256: C24958B12FCA20C752B3CD81C2EC8F004734BD7F5B964A16764E1632ECE06B51, ED2K: BDABD38E8FEC608DBBFCEFF7AF8D8FB8
Screenshots
screenshotscreenshotscreenshotscreenshotscreenshot
SubtitlesAll Attachments | Cthuko [eng, ASS]
Additional Info
General
Unique ID                                : 193588956285304197215031229185110887969 (0x91A3E074BC7B390BA1D5B7B9A344CE21)
Complete name                            : [Cthuko] One Punch Man - 03 [720p H264 AAC][7BDEEF12].mkv
Format                                   : Matroska
Format version                           : Version 4 / Version 2
File size                                : 589 MiB
Duration                                 : 24 min 19 s
Overall bit rate                         : 3 385 kb/s
Encoded date                             : UTC 2015-10-20 03:00:20
Writing application                      : mkvmerge v7.9.0 ('Birds') 64bit
Writing library                          : libebml v1.3.1 + libmatroska v1.4.2
Attachments                              : Brush Strokes_0.ttf / eartmbe.ttf / FastBrush.ttf / Franchise-Bold-hinted.ttf / JennaSue.ttf / Ubuntu-Bold.ttf / Ubuntu-BoldItalic.ttf / Brush Strokes.ttf

Video
ID                                       : 1
Format                                   : AVC
Format/Info                              : Advanced Video Codec
Format profile                           : High 10@L5
Format settings, CABAC                   : Yes
Format settings, ReFrames                : 16 frames
Codec ID                                 : V_MPEG4/ISO/AVC
Duration                                 : 24 min 19 s
Bit rate                                 : 3 185 kb/s
Width                                    : 1 280 pixels
Height                                   : 720 pixels
Display aspect ratio                     : 16:9
Frame rate mode                          : Constant
Frame rate                               : 23.976 (24000/1001) FPS
Color space                              : YUV
Chroma subsampling                       : 4:2:0
Bit depth                                : 10 bits
Scan type                                : Progressive
Bits/(Pixel*Frame)                       : 0.144
Stream size                              : 554 MiB (94%)
Title                                    : H264
Writing library                          : x264 core 142 r2431+42 c69a006 tMod [10-bit@all X86_64]
Encoding settings                        : cabac=1 / ref=16 / deblock=1:-1:-1 / analyse=0x3:0x133 / me=umh / subme=10 / psy=1 / fade_compensate=0.65 / psy_rd=0.79:0.00 / mixed_ref=1 / me_range=24 / chroma_me=1 / trellis=2 / 8x8dct=1 / cqm=0 / deadzone=21,11 / fast_pskip=1 / chroma_qp_offset=-2 / threads=12 / lookahead_threads=3 / sliced_threads=0 / nr=0 / decimate=1 / interlaced=0 / bluray_compat=0 / constrained_intra=0 / fgo=0 / bframes=16 / b_pyramid=2 / b_adapt=2 / b_bias=0 / direct=3 / weightb=1 / open_gop=0 / weightp=2 / keyint=250 / keyint_min=23 / scenecut=40 / intra_refresh=0 / rc_lookahead=60 / rc=crf / mbtree=1 / crf=16.0000 / qcomp=0.77 / qpmin=0:0:0 / qpmax=81:81:81 / qpstep=4 / ip_ratio=1.40 / aq=3:0.87 / aq-sensitivity=10.00 / aq-factor=1.00:1.00:1.00 / aq2=0 / aq3=0
Language                                 : Japanese
Default                                  : Yes
Forced                                   : No
Color range                              : Limited
Matrix coefficients                      : BT.709

Audio
ID                                       : 2
Format                                   : AAC
Format/Info                              : Advanced Audio Codec
Format profile                           : LC
Codec ID                                 : A_AAC
Duration                                 : 24 min 19 s
Bit rate                                 : 192 kb/s
Channel(s)                               : 2 channels
Channel positions                        : Front: L R
Sampling rate                            : 48.0 kHz
Frame rate                               : 46.875 FPS (1024 spf)
Compression mode                         : Lossy
Stream size                              : 32.8 MiB (6%)
Title                                    : AAC
Language                                 : Japanese
Default                                  : Yes
Forced                                   : No

Text
ID                                       : 3
Format                                   : ASS
Codec ID                                 : S_TEXT/ASS
Codec ID/Info                            : Advanced Sub Station Alpha
Duration                                 : 24 min 19 s
Bit rate                                 : 434 b/s
Count of elements                        : 801
Compression mode                         : Lossless
Stream size                              : 77.5 KiB (0%)
Title                                    : Cthuko
Language                                 : English
Default                                  : Yes
Forced                                   : No

Menu
00:00:00.033                             : en:Prologue
00:02:28.000                             : en:Opening
00:03:58.000                             : en:Part A
00:12:22.970                             : en:Part B
00:22:00.000                             : en:Ending
00:23:30.010                             : en:Epilogue
00:23:59.960                             : en:Preview

Other Files in this Torrent
[Cthuko] One Punch Man - 03 [720p H264 AAC][7BDEEF12].mkv
beta
Anime DDL+NZB mirror
Current Time: 30/11/2021 09:39



About/FAQs

Discord