[Cthuko] One Punch Man - 05 [720p H264 AAC][B5B47831].mkv


File Size394.8 MB (413,965,173 bytes)
DownloadGo4Up | Jheberg | MultiUp | OpenLoad | SolidFiles | UsersCloud
Sendspace: Part1, Part2
HashesCRC32: B5B47831, MD5: 746A5FD23563C0BFB0A943436F88D381, SHA1: 0FA77BB00B6678E447CC9FB408C812A94684A2E2, SHA256: 5477798F1EA38784F2D933D121B864FA521A81E30F51AF671FE709A292E86FCE, ED2K: 87E1DC546B9857A793B021BEE6E52782
Screenshots
screenshotscreenshotscreenshotscreenshotscreenshot
SubtitlesAll Attachments | Cthuko [eng, ASS]
Additional Info
General
Unique ID                                : 225378320440514483668518476389067798726 (0xA98E491E140D5426B1C6151335A038C6)
Complete name                            : [Cthuko] One Punch Man - 05 [720p H264 AAC][B5B47831].mkv
Format                                   : Matroska
Format version                           : Version 4 / Version 2
File size                                : 395 MiB
Duration                                 : 24 min 20 s
Overall bit rate                         : 2 268 kb/s
Encoded date                             : UTC 2015-11-15 01:43:43
Writing application                      : mkvmerge v8.5.2 ('Crosses') 64bit
Writing library                          : libebml v1.3.3 + libmatroska v1.4.4
Attachments                              : Brush Strokes_0.ttf / cambria.ttc / cambriab.ttf / Cheboyga.ttf / Copybook.TTF / CREABBRG.ttf / DFGRuLeiWwcw.ttf / DFPLeiSho-SB.ttf / Franchise-Bold-hinted.ttf / JennaSue.ttf / SWZ721H.ttf / Ubuntu-Bold.ttf / Ubuntu-BoldItalic.ttf / AdobeHeiti-Kami.ttf / AllThatMatters.ttf / ARLRDBD.TTF

Video
ID                                       : 1
Format                                   : AVC
Format/Info                              : Advanced Video Codec
Format profile                           : High 10@L5
Format settings, CABAC                   : Yes
Format settings, ReFrames                : 16 frames
Codec ID                                 : V_MPEG4/ISO/AVC
Duration                                 : 24 min 20 s
Bit rate                                 : 2 047 kb/s
Width                                    : 1 280 pixels
Height                                   : 720 pixels
Display aspect ratio                     : 16:9
Frame rate mode                          : Constant
Frame rate                               : 23.976 (24000/1001) FPS
Color space                              : YUV
Chroma subsampling                       : 4:2:0
Bit depth                                : 10 bits
Scan type                                : Progressive
Bits/(Pixel*Frame)                       : 0.093
Stream size                              : 356 MiB (90%)
Title                                    : H264
Writing library                          : x264 core 142 r2431+42 c69a006 tMod [10-bit@all X86_64]
Encoding settings                        : cabac=1 / ref=16 / deblock=1:-1:-1 / analyse=0x3:0x133 / me=umh / subme=10 / psy=1 / fade_compensate=0.65 / psy_rd=0.79:0.00 / mixed_ref=1 / me_range=24 / chroma_me=1 / trellis=2 / 8x8dct=1 / cqm=0 / deadzone=21,11 / fast_pskip=1 / chroma_qp_offset=-2 / threads=12 / lookahead_threads=3 / sliced_threads=0 / nr=0 / decimate=1 / interlaced=0 / bluray_compat=0 / constrained_intra=0 / fgo=0 / bframes=16 / b_pyramid=2 / b_adapt=2 / b_bias=0 / direct=3 / weightb=1 / open_gop=0 / weightp=2 / keyint=250 / keyint_min=23 / scenecut=40 / intra_refresh=0 / rc_lookahead=60 / rc=crf / mbtree=1 / crf=16.0000 / qcomp=0.77 / qpmin=0:0:0 / qpmax=81:81:81 / qpstep=4 / ip_ratio=1.40 / aq=3:0.87 / aq-sensitivity=10.00 / aq-factor=1.00:1.00:1.00 / aq2=0 / aq3=0
Language                                 : Japanese
Default                                  : Yes
Forced                                   : No
Color range                              : Limited
Matrix coefficients                      : BT.709

Audio
ID                                       : 2
Format                                   : AAC
Format/Info                              : Advanced Audio Codec
Format profile                           : LC
Codec ID                                 : A_AAC
Duration                                 : 24 min 19 s
Bit rate                                 : 192 kb/s
Channel(s)                               : 2 channels
Channel positions                        : Front: L R
Sampling rate                            : 48.0 kHz
Frame rate                               : 46.875 FPS (1024 spf)
Compression mode                         : Lossy
Stream size                              : 32.8 MiB (8%)
Title                                    : AAC
Language                                 : Japanese
Default                                  : Yes
Forced                                   : No

Text
ID                                       : 3
Format                                   : ASS
Codec ID                                 : S_TEXT/ASS
Codec ID/Info                            : Advanced Sub Station Alpha
Duration                                 : 24 min 17 s
Bit rate                                 : 6 771 b/s
Count of elements                        : 5362
Compression mode                         : Lossless
Stream size                              : 1.18 MiB (0%)
Title                                    : Cthuko
Language                                 : English
Default                                  : Yes
Forced                                   : No

Menu
00:00:00.033                             : en:Prologue
00:01:10.000                             : en:Opening
00:02:39.970                             : en:Part A
00:12:04.990                             : en:Part B
00:22:02.000                             : en:Ending
00:23:31.970                             : en:Epilogue
00:23:59.960                             : en:Preview

Other Files in this Torrent
[Cthuko] One Punch Man - 05 [720p H264 AAC][B5B47831].mkv
beta
Anime DDL+NZB mirror
Current Time: 30/11/2021 10:05



About/FAQs

Discord