[Cthuko] One Punch Man - 06 [720p H264 AAC][B56C10F1].mkv


File Size406.5 MB (426,224,296 bytes)
DownloadGo4Up | Jheberg | MultiUp | OpenLoad | SolidFiles | UsersCloud
Sendspace: Part1, Part2
HashesCRC32: B56C10F1, MD5: 66448FDF97AA846AFDA09D1CD28177AC, SHA1: 33E34018879C334514CB16086EE06C474905990C, SHA256: 660CBD71E325DCBADEA82B1419539A40413D01F588F8A2ED711A59F7AE538B6D, ED2K: A90A4185609DF32CFDD1B382C6EAD065
Screenshots
screenshotscreenshotscreenshotscreenshotscreenshot
SubtitlesAll Attachments | Cthuko [eng, ASS]
Additional Info
General
Unique ID                                : 251910566030423478042689328675865205258 (0xBD8435D274B99E27BD21A7A426979A0A)
Complete name                            : [Cthuko] One Punch Man - 06 [720p H264 AAC][B56C10F1].mkv
Format                                   : Matroska
Format version                           : Version 4 / Version 2
File size                                : 406 MiB
Duration                                 : 24 min 20 s
Overall bit rate                         : 2 335 kb/s
Encoded date                             : UTC 2015-12-01 02:32:38
Writing application                      : mkvmerge v8.5.2 ('Crosses') 64bit
Writing library                          : libebml v1.3.3 + libmatroska v1.4.4
Attachments                              : AppleGaramond-Bold.ttf / Brush Strokes_0.ttf / Franchise-Bold-hinted.ttf / GillSansStd-Bold_0.otf / JennaSue.ttf / Swiss 721 Thin BT.ttf / SWZ721M_0.TTF / The Lost Paintings_0.ttf / Ubuntu-Bold.ttf / Ubuntu-BoldItalic.ttf / AdobeHeiti-Kami.ttf / AGaramondPro-Regular.otf / ALLER_LT.TTF / Aller_Rg.ttf

Video
ID                                       : 1
Format                                   : AVC
Format/Info                              : Advanced Video Codec
Format profile                           : High 10@L5
Format settings, CABAC                   : Yes
Format settings, ReFrames                : 16 frames
Codec ID                                 : V_MPEG4/ISO/AVC
Duration                                 : 24 min 20 s
Bit rate                                 : 1 975 kb/s
Width                                    : 1 280 pixels
Height                                   : 720 pixels
Display aspect ratio                     : 16:9
Frame rate mode                          : Constant
Frame rate                               : 23.976 (24000/1001) FPS
Color space                              : YUV
Chroma subsampling                       : 4:2:0
Bit depth                                : 10 bits
Scan type                                : Progressive
Bits/(Pixel*Frame)                       : 0.089
Stream size                              : 344 MiB (85%)
Title                                    : H264
Writing library                          : x264 core 142 r2431+42 c69a006 tMod [10-bit@all X86_64]
Encoding settings                        : cabac=1 / ref=16 / deblock=1:-1:-1 / analyse=0x3:0x133 / me=umh / subme=10 / psy=1 / fade_compensate=0.65 / psy_rd=0.79:0.00 / mixed_ref=1 / me_range=24 / chroma_me=1 / trellis=2 / 8x8dct=1 / cqm=0 / deadzone=21,11 / fast_pskip=1 / chroma_qp_offset=-2 / threads=12 / lookahead_threads=3 / sliced_threads=0 / nr=0 / decimate=1 / interlaced=0 / bluray_compat=0 / constrained_intra=0 / fgo=0 / bframes=16 / b_pyramid=2 / b_adapt=2 / b_bias=0 / direct=3 / weightb=1 / open_gop=0 / weightp=2 / keyint=250 / keyint_min=23 / scenecut=40 / intra_refresh=0 / rc_lookahead=60 / rc=crf / mbtree=1 / crf=16.0000 / qcomp=0.77 / qpmin=0:0:0 / qpmax=81:81:81 / qpstep=4 / ip_ratio=1.40 / aq=3:0.87 / aq-sensitivity=10.00 / aq-factor=1.00:1.00:1.00 / aq2=0 / aq3=0
Language                                 : Japanese
Default                                  : Yes
Forced                                   : No
Color range                              : Limited
Matrix coefficients                      : BT.709

Audio
ID                                       : 2
Format                                   : AAC
Format/Info                              : Advanced Audio Codec
Format profile                           : LC
Codec ID                                 : A_AAC
Duration                                 : 24 min 20 s
Bit rate                                 : 192 kb/s
Channel(s)                               : 2 channels
Channel positions                        : Front: L R
Sampling rate                            : 48.0 kHz
Frame rate                               : 46.875 FPS (1024 spf)
Compression mode                         : Lossy
Stream size                              : 32.8 MiB (8%)
Title                                    : AAC
Language                                 : Japanese
Default                                  : Yes
Forced                                   : No

Text
ID                                       : 3
Format                                   : ASS
Codec ID                                 : S_TEXT/ASS
Codec ID/Info                            : Advanced Sub Station Alpha
Duration                                 : 24 min 17 s
Bit rate                                 : 158 kb/s
Count of elements                        : 3722
Compression mode                         : Lossless
Stream size                              : 27.5 MiB (7%)
Title                                    : Cthuko
Language                                 : English
Default                                  : Yes
Forced                                   : No

Menu
00:00:00.033                             : en:Prologue
00:03:09.000                             : en:Opening
00:04:39.050                             : en:Part A
00:10:09.040                             : en:Part B
00:21:18.080                             : en:Ending
00:22:48.050                             : en:Epilogue
00:24:00.040                             : en:Preview

Other Files in this Torrent
[Cthuko] One Punch Man - 06 [720p H264 AAC][B56C10F1].mkv
beta
Anime DDL+NZB mirror
Current Time: 30/11/2021 09:56



About/FAQs

Discord