File Size305.6 MB (320,416,444 bytes)
DownloadClickNUpload | Go4Up
  • DownAce
  • FileFactory
  • KatFile
  • Oboom
  • OwnDrives
  • Share-Online
  • SolidFiles
  • TusFiles
  • Uppit
  • UsersCloud
| Jheberg | MultiUp
  • BdUpload
  • DownAce
  • Fichier
  • FileCloud
  • Filerio
  • FilesCdn
  • IndiShare
  • Kbagi
  • Solidfiles
  • Turbobit
  • UpToBox
  • Uppit
| OpenLoad | ZippyShare
Sendspace: Part1, Part2
HashesCRC32: DEEA70E7, MD5: 62661A6FCC9A4C7D592DB4BAADBA7CB4, SHA1: 094338477471D449872E7A14398A5E4FAFFF2763, SHA256: 38A0DA7282E293B0F4371E92BC06E628CF697CA6EA4E4C95C70FD800DA2A3042, ED2K: 7BF1D0B91981B7B3385909761ACD54E1
Screenshots
screenshotscreenshotscreenshotscreenshotscreenshot
SubtitlesAll Attachments | und [ASS]
Additional Info
General
Unique ID                                : 142790099605806948757186774581489649666 (0x6B6C5F73B4C73A374F9CC1E457F74802)
Complete name                            : [Commie] One-Punch Man - 10 [DEEA70E7].mkv
Format                                   : Matroska
Format version                           : Version 4
File size                                : 306 MiB
Duration                                 : 24 min 20 s
Overall bit rate                         : 1 756 kb/s
Movie name                               : [Commie] One-Punch Man - 10
Encoded date                             : UTC 2015-12-14 10:56:19
Writing application                      : mkvmerge v7.8.0 (' SERVRHE ') 64bit built on Mar 27 2015 21:20:31
Writing library                          : libebml v1.3.1 + libmatroska v1.4.2
Attachments                              : Franchise-Bold-hinted.ttf / DISTInkingFxd-Bold.otf / VinceHand-215.ttf / PTS75F.ttf / SubClearSans-Bold.ttf / PTS76F.ttf / khmerui.ttf / Brush Strokes.ttf

Video
ID                                       : 1
Format                                   : AVC
Format/Info                              : Advanced Video Codec
Format profile                           : High 10@L5
Format settings                          : CABAC / 10 Ref Frames
Format settings, CABAC                   : Yes
Format settings, ReFrames                : 10 frames
Codec ID                                 : V_MPEG4/ISO/AVC
Duration                                 : 24 min 20 s
Bit rate                                 : 1 488 kb/s
Width                                    : 1 280 pixels
Height                                   : 720 pixels
Display aspect ratio                     : 16:9
Frame rate mode                          : Constant
Frame rate                               : 23.976 (24000/1001) FPS
Color space                              : YUV
Chroma subsampling                       : 4:2:0
Bit depth                                : 10 bits
Scan type                                : Progressive
Bits/(Pixel*Frame)                       : 0.067
Stream size                              : 259 MiB (85%)
Writing library                          : x264 core 142 r2431+42 c69a006 tMod [10-bit@all X86_64]
Encoding settings                        : cabac=1 / ref=10 / deblock=1:0:0 / analyse=0x3:0x133 / me=umh / subme=10 / psy=1 / fade_compensate=0.00 / psy_rd=0.70:0.00 / mixed_ref=1 / me_range=24 / chroma_me=1 / trellis=2 / 8x8dct=1 / cqm=0 / deadzone=21,11 / fast_pskip=1 / chroma_qp_offset=-2 / threads=12 / lookahead_threads=3 / sliced_threads=0 / nr=0 / decimate=1 / interlaced=0 / bluray_compat=0 / constrained_intra=0 / fgo=0 / bframes=12 / b_pyramid=2 / b_adapt=2 / b_bias=0 / direct=3 / weightb=1 / open_gop=0 / weightp=2 / keyint=250 / keyint_min=23 / scenecut=40 / intra_refresh=0 / rc_lookahead=60 / rc=crf / mbtree=1 / crf=16.0000 / qcomp=0.70 / qpmin=0:0:0 / qpmax=81:81:81 / qpstep=4 / ip_ratio=1.40 / aq=3:0.80 / aq-sensitivity=10.00 / aq-factor=1.00:1.00:1.00 / aq2=0 / aq3=0
Language                                 : English
Default                                  : Yes
Forced                                   : No
Color range                              : Limited
Matrix coefficients                      : BT.709

Audio
ID                                       : 2
Format                                   : AAC LC
Format/Info                              : Advanced Audio Codec Low Complexity
Codec ID                                 : A_AAC-2
Duration                                 : 24 min 20 s
Bit rate                                 : 256 kb/s
Channel(s)                               : 2 channels
Channel layout                           : L R
Sampling rate                            : 48.0 kHz
Frame rate                               : 46.875 FPS (1024 SPF)
Compression mode                         : Lossy
Stream size                              : 44.6 MiB (15%)
Default                                  : Yes
Forced                                   : No

Text
ID                                       : 3
Format                                   : ASS
Muxing mode                              : zlib
Codec ID                                 : S_TEXT/ASS
Codec ID/Info                            : Advanced Sub Station Alpha
Duration                                 : 24 min 1 s
Bit rate                                 : 194 b/s
Count of elements                        : 496
Compression mode                         : Lossless
Stream size                              : 34.3 KiB (0%)
Default                                  : Yes
Forced                                   : No

Menu
00:00:00.000                             : en:Intro
00:01:16.970                             : en:OP
00:02:47.020                             : en:Part A
00:15:01.960                             : en:Part B
00:22:29.950                             : en:ED
00:24:00.000                             : en:Preview

Other Files in this Torrent
[Commie] One-Punch Man - 10 [DEEA70E7].mkv
beta
Anime DDL+NZB mirror
Current Time: 05/12/2021 11:56



About/FAQs

Discord