File Size393.6 MB (412,689,560 bytes)
DownloadClickNUpload | Go4Up
  • DownAce
  • FileFactory
  • KatFile
  • Oboom
  • OwnDrives
  • Share-Online
  • SolidFiles
  • TusFiles
  • Uppit
  • UsersCloud
| Jheberg
  • 1Fichier
  • 2Giga
  • BDupload
  • ClicknUpload
  • Filerio
  • FilesCDN
  • FilesUpload
  • Free
  • Nitroflare
  • Nofile
  • Turbobit
  • Uppit
  • Uptobox
| MultiUp
  • BdUpload
  • DownAce
  • Fichier
  • FileCloud
  • Filerio
  • FilesCdn
  • IndiShare
  • Kbagi
  • Solidfiles
  • Turbobit
  • UpToBox
  • Uppit
| OpenLoad | ZippyShare
Sendspace: Part1, Part2
HashesCRC32: 69C7B22D, MD5: CA531A86CAF5B3FBA48C04B5309F28F0, SHA1: 0AB231FA50FFE45F7B1610EEE5AE1613C32F02F9, SHA256: 71DE6763378AF6814874D6A01723B69C7171DC61BD8394EA0B8AFD8529F7DDE2, ED2K: 4C4461780025804379C67C7838EB942A
Screenshots
screenshotscreenshotscreenshotscreenshotscreenshot
SubtitlesAll Attachments | und [ASS]
Additional Info
General
Unique ID                                : 241612663734163649837515406712187335157 (0xB5C4E80A04E22ECDA0E4B142AB5B31F5)
Complete name                            : [Commie] One-Punch Man - 03 [69C7B22D].mkv
Format                                   : Matroska
Format version                           : Version 4
File size                                : 394 MiB
Duration                                 : 24 min 20 s
Overall bit rate                         : 2 261 kb/s
Movie name                               : [Commie] One-Punch Man - 03
Encoded date                             : UTC 2015-10-19 08:12:27
Writing application                      : mkvmerge v7.8.0 (' SERVRHE ') 64bit built on Mar 27 2015 21:20:31
Writing library                          : libebml v1.3.1 + libmatroska v1.4.2
Attachments                              : Franchise-Bold-hinted.ttf / DISTInkingFxd-Bold.otf / PTS75F.ttf / KGBlankSpaceSolid_2.ttf / PTS76F.ttf / khmerui.ttf / Brush Strokes.ttf

Video
ID                                       : 1
Format                                   : AVC
Format/Info                              : Advanced Video Codec
Format profile                           : High 10@L5
Format settings                          : CABAC / 16 Ref Frames
Format settings, CABAC                   : Yes
Format settings, ReFrames                : 16 frames
Codec ID                                 : V_MPEG4/ISO/AVC
Duration                                 : 24 min 19 s
Bit rate                                 : 2 063 kb/s
Width                                    : 1 280 pixels
Height                                   : 720 pixels
Display aspect ratio                     : 16:9
Frame rate mode                          : Constant
Frame rate                               : 23.976 (24000/1001) FPS
Color space                              : YUV
Chroma subsampling                       : 4:2:0
Bit depth                                : 10 bits
Scan type                                : Progressive
Bits/(Pixel*Frame)                       : 0.093
Stream size                              : 359 MiB (91%)
Writing library                          : x264 core 148 r2597+53 5548565 t_mod_Custom [10-bit@all X86_64]
Encoding settings                        : cabac=1 / ref=16 / deblock=1:0:0 / analyse=0x3:0x133 / me=umh / subme=10 / psy=1 / fade_compensate=0.70 / psy_rd=0.60:0.15 / mixed_ref=1 / me_range=24 / chroma_me=1 / trellis=2 / 8x8dct=1 / cqm=0 / deadzone=21,11 / fast_pskip=1 / chroma_qp_offset=-3 / threads=12 / lookahead_threads=3 / sliced_threads=0 / nr=0 / decimate=1 / interlaced=0 / bluray_compat=0 / constrained_intra=0 / fgo=0 / bframes=10 / b_pyramid=2 / b_adapt=2 / b_bias=0 / direct=3 / weightb=1 / open_gop=0 / weightp=2 / keyint=250 / keyint_min=23 / scenecut=40 / intra_refresh=0 / rc_lookahead=60 / rc=crf / mbtree=1 / crf=18.0000 / qcomp=0.70 / qpmin=0:0:0 / qpmax=81:81:81 / qpstep=4 / ip_ratio=1.40 / aq=3:0.80 / aq-sensitivity=10.00 / aq-factor=1.00:1.00:1.00 / aq2=0 / aq3=0
Language                                 : English
Default                                  : Yes
Forced                                   : No

Audio
ID                                       : 2
Format                                   : AAC LC
Format/Info                              : Advanced Audio Codec Low Complexity
Codec ID                                 : A_AAC-2
Duration                                 : 24 min 20 s
Bit rate                                 : 192 kb/s
Channel(s)                               : 2 channels
Channel layout                           : L R
Sampling rate                            : 48.0 kHz
Frame rate                               : 46.875 FPS (1024 SPF)
Compression mode                         : Lossy
Stream size                              : 32.8 MiB (8%)
Language                                 : Japanese
Default                                  : Yes
Forced                                   : No

Text
ID                                       : 3
Format                                   : ASS
Muxing mode                              : zlib
Codec ID                                 : S_TEXT/ASS
Codec ID/Info                            : Advanced Sub Station Alpha
Duration                                 : 24 min 19 s
Bit rate                                 : 390 b/s
Count of elements                        : 778
Compression mode                         : Lossless
Stream size                              : 69.6 KiB (0%)
Default                                  : Yes
Forced                                   : No

Menu
00:00:00.000                             : en:Intro
00:02:27.981                             : en:OP
00:03:58.029                             : en:Part A
00:12:22.992                             : en:Part B
00:22:00.027                             : en:ED
00:23:30.033                             : en:Outro
00:23:59.980                             : en:Preview

Other Files in this Torrent
[Commie] One-Punch Man - 03 [69C7B22D].mkv
beta
Anime DDL+NZB mirror
Current Time: 05/12/2021 12:11



About/FAQs

Discord