File Size313.6 MB (328,875,903 bytes)
DownloadClickNUpload | Go4Up
  • DownAce
  • FileFactory
  • KatFile
  • Oboom
  • OwnDrives
  • Share-Online
  • SolidFiles
  • TusFiles
  • Uppit
  • UsersCloud
| Jheberg
  • 1Fichier
  • 2Giga
  • BDupload
  • ClicknUpload
  • Filerio
  • FilesCDN
  • FilesUpload
  • Free
  • Nitroflare
  • Nofile
  • Turbobit
  • Uppit
  • Uptobox
| MultiUp
  • BdUpload
  • DownAce
  • Fichier
  • FileCloud
  • Filerio
  • FilesCdn
  • IndiShare
  • Kbagi
  • Solidfiles
  • Turbobit
  • UpToBox
  • Uppit
| OpenLoad | ZippyShare
Sendspace: Part1, Part2
HashesCRC32: BEDE37D4, MD5: 16CC625F144A513BBC68A0190D46C442, SHA1: 0300072AE85D836866380CBDD37DCE2BE9C155CE, SHA256: 3C1200F211BE0679B12040023540558E819265E6DF46EED19D9267FB37C7AA13, ED2K: 4A8DA4AFFE71FF14D80B31E34A061DD2
Screenshots
screenshotscreenshotscreenshotscreenshotscreenshot
SubtitlesAll Attachments | und [ASS]
Additional Info
General
Unique ID                                : 289918114349109855947086013531256950698 (0xDA1C32A201AB69B90021DCBAECBE8FAA)
Complete name                            : [Commie] One-Punch Man - 05 [BEDE37D4].mkv
Format                                   : Matroska
Format version                           : Version 4
File size                                : 314 MiB
Duration                                 : 24 min 20 s
Overall bit rate                         : 1 802 kb/s
Movie name                               : [Commie] One-Punch Man - 05
Encoded date                             : UTC 2015-11-04 02:37:53
Writing application                      : mkvmerge v7.8.0 (' SERVRHE ') 64bit built on Mar 27 2015 21:20:31
Writing library                          : libebml v1.3.1 + libmatroska v1.4.2
Attachments                              : Franchise-Bold-hinted.ttf / DISTInkingFxd-Bold.otf / CentraleSansRnd-ExtraBold.ttf / PTS75F.ttf / SubClearSans-Bold.ttf / Averia-Bold_1.ttf / PTS76F.ttf / khmerui.ttf / Brush Strokes.ttf / CK Marker.ttf

Video
ID                                       : 1
Format                                   : AVC
Format/Info                              : Advanced Video Codec
Format profile                           : High 10@L5
Format settings                          : CABAC / 10 Ref Frames
Format settings, CABAC                   : Yes
Format settings, ReFrames                : 10 frames
Codec ID                                 : V_MPEG4/ISO/AVC
Duration                                 : 24 min 20 s
Bit rate                                 : 1 600 kb/s
Width                                    : 1 280 pixels
Height                                   : 720 pixels
Display aspect ratio                     : 16:9
Frame rate mode                          : Constant
Frame rate                               : 23.976 (24000/1001) FPS
Color space                              : YUV
Chroma subsampling                       : 4:2:0
Bit depth                                : 10 bits
Scan type                                : Progressive
Bits/(Pixel*Frame)                       : 0.072
Stream size                              : 278 MiB (89%)
Writing library                          : x264 core 142 r2431+42 c69a006 tMod [10-bit@all X86_64]
Encoding settings                        : cabac=1 / ref=10 / deblock=1:0:0 / analyse=0x3:0x133 / me=umh / subme=10 / psy=1 / fade_compensate=0.00 / psy_rd=0.70:0.00 / mixed_ref=1 / me_range=24 / chroma_me=1 / trellis=2 / 8x8dct=1 / cqm=0 / deadzone=21,11 / fast_pskip=1 / chroma_qp_offset=-2 / threads=12 / lookahead_threads=3 / sliced_threads=0 / nr=0 / decimate=1 / interlaced=0 / bluray_compat=0 / constrained_intra=0 / fgo=0 / bframes=10 / b_pyramid=2 / b_adapt=2 / b_bias=0 / direct=3 / weightb=1 / open_gop=0 / weightp=2 / keyint=250 / keyint_min=23 / scenecut=40 / intra_refresh=0 / rc_lookahead=60 / rc=crf / mbtree=1 / crf=16.5000 / qcomp=0.70 / qpmin=0:0:0 / qpmax=81:81:81 / qpstep=4 / ip_ratio=1.40 / aq=3:0.80 / aq-sensitivity=10.00 / aq-factor=1.00:1.00:1.00 / aq2=0 / aq3=0
Language                                 : Japanese
Default                                  : Yes
Forced                                   : No
Color range                              : Limited
Matrix coefficients                      : BT.709

Audio
ID                                       : 2
Format                                   : AAC LC
Format/Info                              : Advanced Audio Codec Low Complexity
Codec ID                                 : A_AAC-2
Duration                                 : 24 min 20 s
Bit rate                                 : 192 kb/s
Channel(s)                               : 2 channels
Channel layout                           : L R
Sampling rate                            : 48.0 kHz
Frame rate                               : 46.875 FPS (1024 SPF)
Compression mode                         : Lossy
Delay relative to video                  : 8 ms
Stream size                              : 33.0 MiB (11%)
Language                                 : Japanese
Default                                  : Yes
Forced                                   : No

Text
ID                                       : 3
Format                                   : ASS
Muxing mode                              : zlib
Codec ID                                 : S_TEXT/ASS
Codec ID/Info                            : Advanced Sub Station Alpha
Duration                                 : 24 min 18 s
Bit rate                                 : 425 b/s
Count of elements                        : 845
Compression mode                         : Lossless
Stream size                              : 75.7 KiB (0%)
Default                                  : Yes
Forced                                   : No

Menu
00:00:00.033                             : en:Intro
00:01:09.960                             : en:OP
00:02:40.010                             : en:Part A
00:12:04.990                             : en:Part B
00:22:02.000                             : en:ED
00:23:31.970                             : en:Outro
00:24:00.000                             : en:Preview

Other Files in this Torrent
[Commie] One-Punch Man - 05 [BEDE37D4].mkv
beta
Anime DDL+NZB mirror
Current Time: 27/11/2022 14:51



About/FAQs

Discord